2 сезон

iTunes

1 сезон

1

iTunes

iTunes

iTunes

1 сезон

RePack

30

ИГРА 18+

pack

ВАЖНО

!!Акция!!

Alien_RageХит недели

RePack

MK11
pack

Забери бонус

RePack

jed

!!Акция!!

Alien_Rage

RePack

fifa19

RePack

Assassins Creed: Odyssey

RePack

NEED FOR SPEED™ PAYBACK

4 сезон

9 сезон

Бесстыжие 9 сезон

Все сериалы

все сериалы на PB.wtf

RePack

FAR CRY 5
  

90-е. Весело и громко / Сезон: 1 / Серии: 1-21 из 21 (Егор Карма) [2019, комедия, WEB-DL 720p] pb.wtf

90-е. Весело и громко через торрент pb.wtf

Размер: 13.2 GB | Добавлен: 1 год 6 мес. назад | Торрент скачан:171 раз
Скачать  

18-03-2019 15:27 90-е. Весело и громко Скачать торрент  

90-е. Весело и громко Год выпуска: 2019
Производство: «Арт Пикчерс Вижн» при участии «БЛЭК БОКС ПРОДАКШН»
Жанр: комедия
Продолжительность: ~00:25:00 серия
Субтитры: нет

Режиссёр: Егор Карма

В ролях:

Стася Милославская, Егор Трухин, Константин Фисенко, Юлия Егерева, Филипп Ершов, Роман Курцын, Дмитрий Никулин, Ян Цапник, Нодар Джанелидзе, Софья Евстигнеева, Эдгар Гизатуллин, Алексей Овсянников

Описание:

История рассказывает о двух гитаристах Васе и Паше, студентке хорового училища Жене, десантнике Бобе и преподавателе классического вокала Птицыне, которые волей случая объединяются, чтобы создать рок-группу. На пути к славе будущих звёзд ждут криминальные авторитеты, малиновые пиджаки, «новейшие» гаджеты в виде пейджеров и тетрисов и, конечно, всемирно известные кумиры, в числе которых Фредди Меркьюри и Курт Кобейн.

Sample

Качество: WEB-DL 720p
Формат: MKV

Видео кодек: H.264
Аудио кодек: AC3
Видео: MPEG4 AVC Video, H264, 16:9, 1280x720, 25 fps, ~3500 kbps, 0.151 bit/pixel
Аудио: AC3, 48.0 kHz, 2/0 (L,R) ch, 192 kbps
[font-sans1]Раздача ведётся путём добавления новых серий, при каждом добавлении создаётся новый торрент. Чтобы начать докачку новой серии, пользователям необходимо сделать следующее:

- Остановить скачивание.
- Удалить старый торрент у себя из клиента (старые серии удалять не надо).
- Скачать новый торрент и запустить его у себя в клиенте вместо старого, при этом указать клиенту путь в старую папку куда и должно происходить скачивание новых серий.

Ваш клиент при этом должен произвести хеширование (проверку) старой папки (если не производит сам - помогите ему сделать это), и будет докачивать только те серии которых у вас ещё нет. Старые серии при этом не удаляются, а продолжают раздаваться!
Если вы уже удалили старые серии, то предотвратить повторную закачку старых серий можно, отжав галочку в соответствующих местах при запуске нового торрента. По возможности, желательно не удалять старые серии как можно дольше, чтобы релизер не столько продолжал раздавать старые серии, а смог сконцентрироваться на новых.[/font-sans1]
General
Unique ID : 229428859563078281864748838882524034735 (0xAC9A641D6B89A7908BFD0AEB57F876AF)
Complete name : D:-e.Veselo.i.gromko.2018.WEB-DL.(720p).Getty-e.Veselo.i.gromko.e01.2018.WEB-DL.(720p).Getty.mkv
Format : Matroska
Format version : Version 2
File size : 687 MiB
Duration : 25 min 39 s
Overall bit rate mode : Variable
Overall bit rate : 3 743 kb/s
Encoded date : UTC 2019-03-18 09:14:14
Writing application : mkvmerge v4.0.0 ('The Stars were mine') сборка от Jun 6 2010 16:18:42
Writing library : libebml v1.0.0 + libmatroska v1.0.0

Video
ID : 1
Format : AVC
Format/Info : Advanced Video Codec
Format profile : High@L4.1
Format settings : CABAC / 5 Ref Frames
Format settings, CABAC : Yes
Format settings, ReFrames : 5 frames
Codec ID : V_MPEG4/ISO/AVC
Duration : 25 min 39 s
Bit rate mode : Variable
Bit rate : 3 477 kb/s
Maximum bit rate : 40.0 Mb/s
Width : 1 280 pixels
Height : 720 pixels
Display aspect ratio : 16:9
Frame rate mode : Constant
Frame rate : 25.000 FPS
Color space : YUV
Chroma subsampling : 4:2:0
Bit depth : 8 bits
Scan type : Progressive
Bits/(Pixel*Frame) : 0.151
Stream size : 638 MiB (93%)
Language : Russian
Default : Yes
Forced : No

Audio
ID : 2
Format : AC-3
Format/Info : Audio Coding 3
Codec ID : A_AC3
Duration : 25 min 39 s
Bit rate mode : Constant
Bit rate : 192 kb/s
Channel(s) : 2 channels
Channel positions : Front: L R
Sampling rate : 48.0 kHz
Frame rate : 31.250 FPS (1536 SPF)
Bit depth : 16 bits
Compression mode : Lossy
Stream size : 35.2 MiB (5%)
Language : Russian
Service kind : Complete Main
Default : Yes
Forced : No
скриншот  скриншот  скриншот  скриншот  

скриншот  скриншот  скриншот  скриншот  
pb.wtf



Скачать 90-е. Весело и громко через торрент https://i110.fastpic.ru/big/2019/0318/67/03e49f6f282d610542d9a6e06e6b6e67.jpg Скачать фильм 90-е. Весело и громко через торрент бесплантно в хорошем качестве Описание: История рассказывает о двух гитаристах Васе и Паше, студентке хорового училища Жене, десантнике Бобе и преподавателе ... 9.4 10 15
Торрент: Зарегистрирован [2019-04-13 07:21] · скачан: 171 раз
Статус: √ проверено
Размер: 13.2 GB
Как cкачать? Как скачать 90-е. Весело и громко через торрент | qTorrent

% Раздел Тема Автор DL S | L
Наши сериалы [ 6.34 GB ] 90-е. Весело и громко / Сезон: 1 / Серии: 1-21 из 21 [2019 WEB-DLRip-AVC] bober100 Скачать
1 | 0
Наши сериалы [ 7.18 GB ] 90-е. Весело и громко / Сезон: 1 / Серии: 1-21 из 21 [2019 WEB-DLRip] bober100 Скачать
1 | 0


Последний раз редактировалось: bober100 (2019-04-13 07:21), всего редактировалось 8 раз(а)

28-11-2019 20:33  

Отключить всю рекламу на сайте

21-03-2019 17:22 90-е. Весело и громко Скачать торрент  

норм вроде сериал!pb.wtf



26-03-2019 17:35 90-е. Весело и громко Скачать торрент  

сериал отличный, скорее бы продолжениеpb.wtf



06-04-2019 11:07 90-е. Весело и громко Скачать торрент  

отличный сериал! смотрим с супругой с удовольствием!pb.wtf



    Дорогой пользователь! Огромная просьба, поблагодарите релизера, оцените раздачу и оставьте свои комментарий, если Вы скачали 90-е. Весело и громко через торрент бесплатно! Внесите свою лепту в развитие PiratBit!
    Комментировать посты могут только пользователи прошедшие не сложную регистрацию
    Показать сообщения:    

    90-е. Весело и громко через торрент
    Скачать бесплатно 90-е. Весело и громко
    90-е. Весело и громко скачать торрент
    90-е. Весело и громко смотреть онлайн
    Cкачать фильм 90-е. Весело и громко бесплатно
    90-е. Весело и громко скачать торрент в хорошем качестве
    90-е. Весело и громко смотреть онлайн бесплатно в хорошем качестве


    Вы не можете начинать темы
    Вы не можете отвечать на сообщения
    Вы не можете редактировать свои сообщения
    Вы не можете удалять свои сообщения
    Вы не можете голосовать в опросах
    Вы не можете прикреплять файлы к сообщениям
    Вы можете скачивать файлы