2 сезон

iTunes

MVO

1

2 сезон

iTunes

iTunes

1 сезон

RePack

30

Новинка

ВАЖНО

ИГРА 18+

pack

RePack

MK11
pack

Легкие деньги

RePack

jed

RePack

fifa19

RePack

RDR2

RePack

NEED FOR SPEED™ PAYBACK

4 сезон

9 сезон

Бесстыжие 9 сезон

Все сериалы

все сериалы на PB.wtf

RePack

FAR CRY 5

Anonymous, добрый день, мы не успеваем собрать деньги на оплату серверов за декабрь и январь, помогите нам пожалуйста в это трудное время. В качестве благодарности мы отключим Вам всю рекламу на сайте (укажите свой ник в строку Ваше имя)!

×
  
Magnet ссылка

Телепорт / Jumper (Даг Лайман) [2008 г., фантастика, боевик, триллер, приключения, BDRip 720p / 60 FPS, Дубляж BD CEE] 60fps от R.G. HD-Films pb.wtf

Телепорт через торрент pb.wtf

Размер: 4.03 GB | Добавлен: 1 год 9 мес. назад | Торрент скачан:170 раз
Скачать  

18-03-2019 18:48 Телепорт Скачать торрент  

Телепорт / Jumper
Год выпуска: 2008
Страна: США, Канада
Жанр: фантастика, боевик, триллер, приключения
Продолжительность: 01:28:21
Перевод: Дубляж BD CEE

Режиссер: Даг Лайман

Бюджет: $85 000 000
Премьера в мире: 6 февраля 2008



В ролях: Хейден Кристенсен, Сэмюэл Л. Джексон, Дайан Лэйн, Джэми Белл, Рэйчел Билсон, Майкл Рукер, АннаСофия Робб, Макс Тириот, Джесси Джеймс, Том Хульц, Кристен Стюарт

Описание: Подросток из неблагополучного района Дэвид Райс всегда считал себя обычным парнем, пока однажды он не узнал, что он может телепортироваться с места на место. Новые способности открыли перед ним весь мир. Он может побывать в Нью-Йорке и Токио, посетить античные развалины в Риме, увидеть «крышу мира» с горы Эверест, увидеть 20 рассветов и 20 закатов. И все — в один день.
Теперь ему не нужны деньги — он может взять сколько хочет. Однако в один момент он обнаруживает, что стал мишенью. На него, как и на других подобных ему, объявлена охота. На протяжении тысячи лет тайное общество стремится уничтожить их. Вскоре Дэвид узнает истинную ценность его новых способностей.


Качество: BDRip 720p / 60 FPS
Формат: MKV
Видео кодек: H.264
Аудио кодек: AC3
Видео: x264, 1280 x 720 (16:9), 6026 kbps, 60,000 fps, ( 0.109bpp)
Аудио#1: AC-3, 48.0 KHz, 6 ch, 384 Kbps (Russian)

Релиз:

скриншот   скриншот   скриншот   скриншот   скриншот   Просьба к переливающим на другие сайты, в оформлении указывайте пожалуйста авторство группы R.G. HD-Films
Общее
Уникальный идентификатор : 222237819156682505989751416032319691250 (0xA73172731BC99FA3A90DA30155E6D9F2)
Полное имя : D:\Jumper.(2008).BDRip.720p.(60 Fps).mkv
Формат : Matroska
Версия формата : Version 4 / Version 2
Размер файла : 4,03 Гбайт
Продолжительность : 1 ч. 28 м.
Общий поток : 6541 Кбит/сек
Название фильма : Телепорт / Jumper (2008) BDRip 720p (60 Fps)
Дата кодирования : UTC 2019-03-18 09:41:02
Программа кодирования : mkvmerge v12.0.0 ('Trust / Lust') 64bit
Библиотека кодирования : libebml v1.3.4 + libmatroska v1.4.5
DURATION : 01:28:15.424000000
NUMBER_OF_FRAMES : 165482
NUMBER_OF_BYTES : 254180352
_STATISTICS_WRITING_APP : mkvmerge v12.0.0 ('Trust / Lust') 64bit
_STATISTICS_WRITING_DATE_UTC : 2019-03-18 09:41:02
_STATISTICS_TAGS : BPS DURATION NUMBER_OF_FRAMES NUMBER_OF_BYTES

Видео
Идентификатор : 1
Формат : AVC
Формат/Информация : Advanced Video Codec
Профиль формата : High@L4.1
Параметр CABAC формата : Да
Параметр ReFrames формата : 8 кадров
Идентификатор кодека : V_MPEG4/ISO/AVC
Продолжительность : 1 ч. 28 м.
Битрейт : 6026 Кбит/сек
Ширина : 1280 пикселей
Высота : 720 пикселей
Соотношение сторон : 16:9
Режим частоты кадров : Постоянный
Частота кадров : 60,000 кадров/сек
Цветовое пространство : YUV
Субдискретизация насыщенности : 4:2:0
Битовая глубина : 8 бит
Тип развёртки : Прогрессивная
Бит/(Пиксели*Кадры) : 0.109
Размер потока : 3,72 Гбайт (92%)
Заголовок : slaventi-69 ( R.G. HD-Films | 60 fps )
Библиотека кодирования : x264 core 130 r2273 b3065e6
Настройки программы : cabac=1 / ref=8 / deblock=1:0:0 / analyse=0x3:0x133 / me=umh / subme=9 / psy=1 / psy_rd=1.00:0.10 / mixed_ref=1 / me_range=30 / chroma_me=1 / trellis=2 / 8x8dct=1 / cqm=0 / deadzone=21,11 / fast_pskip=0 / chroma_qp_offset=-3 / threads=8 / lookahead_threads=4 / sliced_threads=0 / nr=0 / decimate=1 / interlaced=0 / bluray_compat=0 / constrained_intra=0 / bframes=6 / b_pyramid=2 / b_adapt=2 / b_bias=0 / direct=3 / weightb=1 / open_gop=0 / weightp=2 / keyint=250 / keyint_min=25 / scenecut=40 / intra_refresh=0 / rc_lookahead=50 / rc=crf / mbtree=1 / crf=18.0 / qcomp=0.60 / qpmin=0 / qpmax=69 / qpstep=4 / ip_ratio=1.40 / aq=1:1.00
Язык : English
Default : Да
Forced : Нет

Аудио
Идентификатор : 2
Формат : AC-3
Формат/Информация : Audio Coding 3
Расширение режима : CM (complete main)
Параметр Endianness формата : Big
Идентификатор кодека : A_AC3
Продолжительность : 1 ч. 28 м.
Вид битрейта : Постоянный
Битрейт : 384 Кбит/сек
Каналы : 6 каналов
Расположение каналов : Front: L C R, Side: L R, LFE
Частота : 48,0 КГц
Битовая глубина : 16 бит
Метод сжатия : С потерями
Размер потока : 242 Мбайт (6%)
Заголовок : Dub | DD 5.1 @ 384 bps - Blu-ray CEE
Язык : Russian
Default : Да
Forced : Нет

Автор рипа: slaventi-69 pb.wtf



Скачать Телепорт через торрент http://img11.lostpic.net/2017/07/02/3357bd20247c389cde00f602de18edb4.png Скачать фильм Телепорт через торрент бесплантно в хорошем качестве Описание: Подросток из неблагополучного района Дэвид Райс всегда считал себя обычным парнем, пока однажды он не узнал, что он может ... 10 10 12
Info! Золотая раздача, скачанное не засчитывается.
Торрент: Зарегистрирован [2019-03-18 18:48] · скачан: 170 раз
Статус: √ проверено
Размер: 4.03 GB
Как cкачать? Как скачать Телепорт через торрент | UTorrent

28-11-2019 20:33  

Отключить всю рекламу на сайте

18-03-2019 22:38 Телепорт Скачать торрент  

добротное старое кино )pb.wtf



19-03-2019 05:29 Телепорт Скачать торрент  

жаль продолжение так и не сняли pb.wtf



19-03-2019 06:06 Телепорт Скачать торрент  

slaventi-69, Круто! Я смотрю ты вышел на тропу войны? Посыпались релизы от тебя!
Высвободилось время?
Принимаеш заказы?pb.wtf



19-03-2019 15:54 Телепорт Скачать торрент  

Времени всегда не хватает, рипы были нужно было только их привести в порядок и выложить, руки вроде дошли. На счет заказов пишите где положено по возможности буду что то делать.pb.wtf



    Дорогой пользователь! Огромная просьба, поблагодарите релизера, оцените раздачу и оставьте свои комментарий, если Вы скачали Телепорт через торрент бесплатно! Внесите свою лепту в развитие PiratBit!
    Комментировать посты могут только пользователи прошедшие не сложную регистрацию
    Показать сообщения:    

    Телепорт через торрент
    Скачать бесплатно Телепорт
    Телепорт скачать торрент
    Телепорт смотреть онлайн
    Cкачать фильм Телепорт бесплатно
    Телепорт скачать торрент в хорошем качестве
    Телепорт смотреть онлайн бесплатно в хорошем качестве


    Вы не можете начинать темы
    Вы не можете отвечать на сообщения
    Вы не можете редактировать свои сообщения
    Вы не можете удалять свои сообщения
    Вы не можете голосовать в опросах
    Вы не можете прикреплять файлы к сообщениям
    Вы можете скачивать файлы