Всегда рабочее зеркало без VPN и Proxy просто перед .vidak.icu напиши любое слово или цифру, Пример http://rjko.vidak.icu

iTunes

2 сезон

1 сезон

1

1 сезон

iTunes

2 сезон

13

1 сезон

Deluxe

pack

Рекомендуем

Пиратка

30

ВАЖНО

RePack

MK11

RePack

jed

RePack

fifa19

RePack

RDR2

RePack

NEED FOR SPEED™ PAYBACK

Кинопоиск HD

6 сезон

 Острые козырьки 6 сезон

Все сериалы

все сериалы на PB.wtf

RePack

FAR CRY 5

Anonymous, нам критически не хватает 5601 руб. на оплату серверов и переферии за Апрель, помоги нам пожалуйста, вся надежда только на тебя. В благодарность мы отключим тебе всю рекламу на сайте!

×
  
Magnet ссылка

Субура / Suburra / Сезон: 2 / Серии: 1-8 из 8 (Джузеппе Капотонди, Андреа Молайоли, Микеле Плачидо) [2019, боевик, криминал, WEB-DLRip] MVO [Jaskier] pb.wtf

Субура через торрент pb.wtf

Размер: 4.68 GB | Добавлен: 3 года 2 мес. назад | Торрент скачан:35 раз
Смотреть онлайн Субура | Скачать    Ребята, помогите собрать деньги на оплату серверов!!!

19-03-2019 00:58 Субура Скачать торрент  

Субура / Suburra Год выпуска: 2019
Страна: Италия
Жанр: боевик, криминал
Продолжительность: 00:45:00
Перевод: Профессиональный (многоголосый закадровый) | Jaskier

Режиссёр: Джузеппе Капотонди, Андреа Молайоли, Микеле Плачидо

В ролях:

Филиппо Нигро, Франческо Аквароли, Джакомо Феррара, Клаудия Джерини, Алессандро Борги, Адамо Дионизи и другие

Описание:

Сериал расскажет о событиях, происходящих в Субуре — одном из старейших районов Рима, который на протяжении многих лет считался одним из самых опасных на территории города. Здесь процветала торговля наркотиками, проституция, а на тёмных улицах нередко происходили кровавые разборки различных криминальных группировок. В центре сюжета оказываются трое молодых амбициозных парней, чья жажда славы, денег и власти втягивает их в жестокую борьбу за землю в небольшом приморском городке, расположенном недалеко от Рима.

rating

Качество: WEB-DLRip
Формат: AVI

Видео: XviD, ~ 1500 kbps, 720x384 (1,85:1), 25.000 fps
Аудио 1: MP3, 48,0 КГц, 2 ch, 128 kbps - Rus
Аудио 2: MP3, 48,0 КГц, 2 ch, 128 kbps - Ita


Реклама: Присутствует звуковая (два раза в начале и конце по 10 сек.)
Переведено и озвучено: студией Jaskier
Общее
Полное имя                               : G:\Jaskier\Suburra Season 2 (WEB-DLRip l 400p l Jaskier)\Suburra.S02E01.WEB-DLRip.Jaskier.avi
Формат                                   : AVI
Формат/Информация                        : Audio Video Interleave
Размер файла                             : 609 Мбайт
Продолжительность                        : 48 м. 4 с.
Общий поток                              : 1770 Кбит/сек
Программа кодирования                    : VirtualDubMod 1.5.10.2 (build 2540/release)
Библиотека кодирования                   : VirtualDubMod build 2540/release

Видео
Идентификатор                            : 0
Формат                                   : MPEG-4 Visual
Профиль формата                          : Advanced Simple@L5
Настройки формата                        : BVOP2
Параметр BVOP формата                    : 2
Параметр QPel формата                    : Нет
Параметр GMC формата                     : Без точки перехода
Параметр матрицы формата                 : Default (MPEG)
Идентификатор кодека                     : XVID
Идентификатор кодека/Подсказка           : XviD
Продолжительность                        : 48 м. 4 с.
Битрейт                                  : 1500 Кбит/сек
Ширина                                   : 720 пикселей
Высота                                   : 384 пикселя
Соотношение сторон                       : 1,85:1
Частота кадров                           : 25,000 кадров/сек
Цветовое пространство                    : YUV
Субдискретизация насыщенности            : 4:2:0
Битовая глубина                          : 8 бит
Тип развёртки                            : Прогрессивная
Метод сжатия                             : С потерями
Бит/(Пиксели*Кадры)                      : 0.217
Размер потока                            : 516 Мбайт (85%)
Библиотека кодирования                   : XviD 1.2.1 (UTC 2008-12-04)

Аудио #1
Идентификатор                            : 1
Формат                                   : MPEG Audio
Версия формата                           : Version 1
Профиль формата                          : Layer 3
Настройки формата                        : Joint stereo / MS Stereo
Идентификатор кодека                     : 55
Идентификатор кодека/Подсказка           : MP3
Продолжительность                        : 48 м. 4 с.
Вид битрейта                             : Постоянный
Битрейт                                  : 128 Кбит/сек
Каналы                                   : 2 канала
Частота                                  : 48,0 КГц
Частота кадров                           : 41,667 кадра/сек (1152 SPF)
Метод сжатия                             : С потерями
Размер потока                            : 44,0 Мбайт (7%)
Выравнивание                             : Соединение по промежуткам
Продолжительность промежутка             : 40  мс. (1,00 видеокадр)
Время предзагрузки промежутка            : 504  мс.
Библиотека кодирования                   : LAME3.100
Настройки программы                      : -m j -V 4 -q 3 -lowpass 17 -b 128

Аудио #2
Идентификатор                            : 2
Формат                                   : MPEG Audio
Версия формата                           : Version 1
Профиль формата                          : Layer 3
Настройки формата                        : Joint stereo / MS Stereo
Идентификатор кодека                     : 55
Идентификатор кодека/Подсказка           : MP3
Продолжительность                        : 48 м. 4 с.
Вид битрейта                             : Постоянный
Битрейт                                  : 128 Кбит/сек
Каналы                                   : 2 канала
Частота                                  : 48,0 КГц
Частота кадров                           : 41,667 кадра/сек (1152 SPF)
Метод сжатия                             : С потерями
Размер потока                            : 44,0 Мбайт (7%)
Выравнивание                             : Соединение по промежуткам
Продолжительность промежутка             : 40  мс. (1,00 видеокадр)
Время предзагрузки промежутка            : 504  мс.
Библиотека кодирования                   : LAME3.100
Настройки программы                      : -m j -V 4 -q 3 -lowpass 17 -b 128
скриншот  скриншот  скриншот  
pb.wtf



Скачать Субура через торрент https://i109.fastpic.ru/big/2019/0319/01/38b8bb80988c56367aaeedc0cc3ba201.jpg Скачать, смотреть онлайн Субура бесплантно в хорошем качестве Описание: Сериал расскажет о событиях, происходящих в Субуре — одном из старейших районов Рима, который на протяжении многих лет считался ... 10 10 2
Торрент: Зарегистрирован [2019-03-19 00:58] · скачан: 35 раз
Статус: √ проверено
Размер: 4.68 GB
Как cкачать? Как скачать Субура через торрент | UTorrent

% Раздел Тема Автор DL S | L
Зарубежные сериалы [ 13.96 GB ] Субура / Suburra / Сезон: 2 / Серии: 1-8 из 8 [2019 WEB-DL 720p] MVO [Jaskier] bober100 Скачать
1 | 0
Зарубежные сериалы [ 12.61 GB ] Субура / Suburra / Сезон: 2 / Серии: 1-8 из 8 [2019 WEBRip 1080p] [MVO] killermax2013 Скачать
1 | 0
Зарубежные сериалы [ 6.3 GB ] Субура / Suburra / Сезон: 2 / Серии: 1-8 из 8 [2019 WEBRip] [MVO] killermax2013 Скачать
1 | 0

28-11-2019 20:33  

Отключить всю рекламу на сайте

    Дорогой пользователь! Огромная просьба, поблагодарите релизера, оцените раздачу и оставьте свои комментарий, если Вы скачали Субура через торрент бесплатно!
    Комментировать посты могут только пользователи прошедшие не сложную регистрацию
    Показать сообщения:    

    Субура через торрент
    Скачать бесплатно Субура
    Субура скачать торрент
    Субура смотреть онлайн
    Cкачать фильм Субура бесплатно
    Субура скачать торрент в хорошем качестве
    Субура смотреть онлайн бесплатно в хорошем качестве


    Вы не можете начинать темы
    Вы не можете отвечать на сообщения
    Вы не можете редактировать свои сообщения
    Вы не можете удалять свои сообщения
    Вы не можете голосовать в опросах
    Вы не можете прикреплять файлы к сообщениям
    Вы можете скачивать файлы