Всегда рабочее зеркало без VPN и Proxy просто перед .vidak.icu напиши любое слово или цифру, Пример http://0j42.vidak.icu

MVO

2 сезон

1 сезон

1

1 сезон

iTunes

2 сезон

13

1 сезон

Deluxe

pack

Рекомендуем

Пиратка

30

ВАЖНО

RePack

MK11

RePack

jed

RePack

fifa19

RePack

RDR2

RePack

NEED FOR SPEED™ PAYBACK

Кинопоиск HD

6 сезон

 Острые козырьки 6 сезон

Все сериалы

все сериалы на PB.wtf

RePack

FAR CRY 5

Anonymous, нам критически не хватает 5601 руб. на оплату серверов и переферии за Апрель, помоги нам пожалуйста, вся надежда только на тебя. В благодарность мы отключим тебе всю рекламу на сайте!

×
  
Magnet ссылка

Субура / Suburra / Сезон: 2 / Серии: 1-8 из 8 (Джузеппе Капотонди, Андреа Молайоли, Микеле Плачидо) [2019, Драма, криминал, WEB-DL 720p] MVO [Jaskier] pb.wtf

Субура через торрент pb.wtf

Размер: 13.96 GB | Добавлен: 3 года 2 мес. назад | Торрент скачан:11 раз
Смотреть онлайн Субура | Скачать    Ребята, помогите собрать деньги на оплату серверов!!!

19-03-2019 01:02 Субура Скачать торрент  

Субура / Suburra Год выпуска: 2019
Страна: Италия
Жанр: Драма, криминал
Продолжительность: 00:45:00
Перевод: Профессиональный (многоголосый закадровый) | Jaskier

Режиссёр: Джузеппе Капотонди, Андреа Молайоли, Микеле Плачидо

В ролях:

Филиппо Нигро, Франческо Аквароли, Джакомо Феррара, Клаудия Джерини, Алессандро Борги, Адамо Дионизи и другие

Описание:

Сериал расскажет о событиях, происходящих в Субуре — одном из старейших районов Рима, который на протяжении многих лет считался одним из самых опасных на территории города. Здесь процветала торговля наркотиками, проституция, а на тёмных улицах нередко происходили кровавые разборки различных криминальных группировок. В центре сюжета оказываются трое молодых амбициозных парней, чья жажда славы, денег и власти втягивает их в жестокую борьбу за землю в небольшом приморском городке, расположенном недалеко от Рима.

rating

Качество: WEB-DL 720p
Формат: MKV

Видео: 1280x688 (1,85:1) | X264 | ~4826 kbps | 25.000 fps
Аудио 1: AC3, 48,0 КГц, 6 ch, 384 kbps - [RUS]
Аудио 2: AC3, 48,0 КГц, 6 ch, 384 kbps - [ITA]


Реклама: Присутствует звуковая (два раза в начале и конце по 10 сек.)
Переведено и озвучено: студией Jaskier
Общее
Уникальный идентификатор                 : 263717489027755778420704929072822168330 (0xC6662411DF6D612AE0D9037B7EB92B0A)
Полное имя                               : G:\Jaskier\Suburra Season 2 (WEB-DL l 720p l Jaskier)\Suburra.S02E01.WEB-DL.720p.Jaskier.mkv
Формат                                   : Matroska
Версия формата                           : Version 4 / Version 2
Размер файла                             : 1,88 Гбайт
Продолжительность                        : 48 м. 4 с.
Общий поток                              : 5596 Кбит/сек
Дата кодирования                         : UTC 2019-03-18 18:11:54
Программа кодирования                    : mkvmerge v28.0.0 ('Voice In My Head') 64-bit
Библиотека кодирования                   : libebml v1.3.6 + libmatroska v1.4.9

Видео
Идентификатор                            : 1
Формат                                   : AVC
Формат/Информация                        : Advanced Video Codec
Профиль формата                          : High@L4.1
Настройки формата                        : CABAC / 9 Ref Frames
Параметр CABAC формата                   : Да
Параметр RefFrames формата               : 9 кадров
Идентификатор кодека                     : V_MPEG4/ISO/AVC
Продолжительность                        : 48 м. 4 с.
Битрейт                                  : 4826 Кбит/сек
Ширина                                   : 1280 пикселей
Высота                                   : 688 пикселей
Соотношение сторон                       : 1,85:1
Режим частоты кадров                     : Постоянный
Частота кадров                           : 25,000 кадров/сек
Цветовое пространство                    : YUV
Субдискретизация насыщенности            : 4:2:0
Битовая глубина                          : 8 бит
Тип развёртки                            : Прогрессивная
Бит/(Пиксели*Кадры)                      : 0.219
Размер потока                            : 1,62 Гбайт (86%)
Библиотека кодирования                   : x264 core 152 r2851kMod ba24899
Настройки программы                      : cabac=1 / ref=9 / deblock=1:-3:-3 / analyse=0x3:0x133 / me=umh / subme=10 / psy=1 / fade_compensate=0.00 / psy_rd=1.00:0.00 / mixed_ref=1 / me_range=48 / chroma_me=1 / trellis=2 / 8x8dct=1 / cqm=0 / deadzone=21,11 / fast_pskip=0 / chroma_qp_offset=-2 / threads=18 / lookahead_threads=3 / sliced_threads=0 / nr=0 / decimate=0 / interlaced=0 / bluray_compat=0 / constrained_intra=0 / bframes=8 / b_pyramid=2 / b_adapt=2 / b_bias=0 / direct=3 / weightb=1 / open_gop=0 / weightp=2 / keyint=250 / keyint_min=25 / scenecut=40 / intra_refresh=0 / rc=crf / mbtree=0 / crf=16.0000 / qcomp=0.60 / qpmin=0 / qpmax=69 / qpstep=4 / ip_ratio=1.30 / pb_ratio=1.20 / aq=3:0.80
Язык                                     : English
Default                                  : Да
Forced                                   : Нет

Аудио #1
Идентификатор                            : 2
Формат                                   : AC-3
Формат/Информация                        : Audio Coding 3
Идентификатор кодека                     : A_AC3
Продолжительность                        : 48 м. 4 с.
Вид битрейта                             : Постоянный
Битрейт                                  : 384 Кбит/сек
Каналы                                   : 6 каналов
Расположение каналов                     : Front: L C R, Side: L R, LFE
Частота                                  : 48,0 КГц
Частота кадров                           : 31,250 кадров/сек (1536 SPF)
Битовая глубина                          : 16 бит
Метод сжатия                             : С потерями
Размер потока                            : 132 Мбайт (7%)
Язык                                     : Russian
ServiceKind/String                       : Complete Main
Default                                  : Да
Forced                                   : Нет

Аудио #2
Идентификатор                            : 3
Формат                                   : AC-3
Формат/Информация                        : Audio Coding 3
Идентификатор кодека                     : A_AC3
Продолжительность                        : 48 м. 4 с.
Вид битрейта                             : Постоянный
Битрейт                                  : 384 Кбит/сек
Каналы                                   : 6 каналов
Расположение каналов                     : Front: L C R, Side: L R, LFE
Частота                                  : 48,0 КГц
Частота кадров                           : 31,250 кадров/сек (1536 SPF)
Битовая глубина                          : 16 бит
Метод сжатия                             : С потерями
Размер потока                            : 132 Мбайт (7%)
Язык                                     : English
ServiceKind/String                       : Complete Main
Default                                  : Нет
Forced                                   : Нет
скриншот  скриншот  скриншот  
pb.wtf



Скачать Субура через торрент https://i109.fastpic.ru/big/2019/0319/01/38b8bb80988c56367aaeedc0cc3ba201.jpg Скачать, смотреть онлайн Субура бесплантно в хорошем качестве Описание: Сериал расскажет о событиях, происходящих в Субуре — одном из старейших районов Рима, который на протяжении многих лет считался ... 10 10 3
Торрент: Зарегистрирован [2019-03-19 01:02] · скачан: 11 раз
Статус: √ проверено
Размер: 13.96 GB
Как cкачать? Как скачать Субура через торрент | UTorrent

% Раздел Тема Автор DL S | L
Зарубежные сериалы [ 4.68 GB ] Субура / Suburra / Сезон: 2 / Серии: 1-8 из 8 [2019 WEB-DLRip] MVO [Jaskier] bober100 Скачать
1 | 0
Зарубежные сериалы [ 12.61 GB ] Субура / Suburra / Сезон: 2 / Серии: 1-8 из 8 [2019 WEBRip 1080p] [MVO] killermax2013 Скачать
1 | 0
Зарубежные сериалы [ 6.3 GB ] Субура / Suburra / Сезон: 2 / Серии: 1-8 из 8 [2019 WEBRip] [MVO] killermax2013 Скачать
1 | 0

28-11-2019 20:33  

Отключить всю рекламу на сайте

24-03-2019 09:23 Субура Скачать торрент  

Вторая серия только на итальянском (без перевода).pb.wtf



    Дорогой пользователь! Огромная просьба, поблагодарите релизера, оцените раздачу и оставьте свои комментарий, если Вы скачали Субура через торрент бесплатно!
    Комментировать посты могут только пользователи прошедшие не сложную регистрацию
    Показать сообщения:    

    Субура через торрент
    Скачать бесплатно Субура
    Субура скачать торрент
    Субура смотреть онлайн
    Cкачать фильм Субура бесплатно
    Субура скачать торрент в хорошем качестве
    Субура смотреть онлайн бесплатно в хорошем качестве


    Вы не можете начинать темы
    Вы не можете отвечать на сообщения
    Вы не можете редактировать свои сообщения
    Вы не можете удалять свои сообщения
    Вы не можете голосовать в опросах
    Вы не можете прикреплять файлы к сообщениям
    Вы можете скачивать файлы