новый адрес
Ссылка на приватное зеркало всего за 1$. Внимание количество ограничено!!!

iTunes

1+1

iTunes

мы

iTunes

1

iTunes

Чернобыль

iTunes

Ральф против интернета

Лицензия

ПШазам

Лицензия

Оно 2

Лицензия

30
pack

Вам бонус

ВАЖНО

!!Акция!!

Alien_RageХит недели

RePack

Resident Evil 21

ИГРА 18+

pack

RePack

jed

!!Акция!!

Alien_Rage

RePack

fifa19

RePack

Assassins Creed: Odyssey

RePack

NEED FOR SPEED™ PAYBACK

3 сезон

9 сезон

Бесстыжие 9 сезон

Все сериалы

все сериалы на PB.wtf

RePack

FAR CRY 5
Ребята, катастрофически не хватает 1900р. для оплаты серверов за Октябрь (всвязи с блокировками трафик упал в 3 раза), 1-2р., выручайте.
  

Человек-паук: Через вселенные в 3Д / Spider-Man: Into the Spider-Verse 3D (Боб Персичетти, Питер Рэмзи) [2018, мультфильм, фантастика, боевик, приключения, семей, BDRip, 1080p] OverUnder / Вертикальная стереопара [Дубляж лицензия pb.wtf

Человек-паук: Через вселенные в 3Д через торрент pb.wtf

Размер: 18.43 GB | Добавлен: 7 мес. назад | Торрент скачан:19 раз
Скачать  

19-03-2019 05:28 Человек-паук: Через вселенные в 3Д Скачать торрент  

Человек-паук: Через вселенные / Spider-Man: Into the Spider-Verse

Год выпуска: 2018
Страна: США (Columbia Pictures, Marvel, Sony Pictures Animation, Pascal Pictures)
Жанр: мультфильм, фантастика, боевик, приключения, семейный
Продолжительность: 01:56:50

Перевод: Профессиональный дублированный(лицензия)
Русские субтитры: нет
Режиссеры : Боб Персичетти, Питер Рэмзи, Родни Ротман / Bob Persichetti, Peter Ramsey, Rodney Rothman

В ролях: Шамеик Мур, Джейк Джонсон, Хейли Стайнфелд, Махершала Али, Брайан Тайри Генри, Лили Томлин, Луна Лорен Велес, Зои Кравиц, Джон Малэйни, Кимико Гленн

Описание: Мы всё знаем о Питере Паркере. Он спас город, влюбился, а потом спасал город снова и снова… Но все это — в нашем измерении. А что если в результате работы гигантского коллайдера откроется окно из одного измерения в другое? Найдется ли в нем свой Человек-паук? И как он будет выглядеть? Приготовьтесь к тому, что в разных вселенных могут быть разные Люди-пауки и однажды им придется собраться вместе для борьбы с почти непобедимым врагом.

Сэмпл: http://sendfile.su/1488322

Качество: BDrip, 1080p
Контейнер: MKV
Формат 3D: OverUnder / Вертикальная стереопара
Порядок ракурсов: левый ракурс первый
Видео кодек: x264
Аудио кодек: AC3
Видео: AVC / High@L5.0 / 23,976 fps / 1920х2160 / 20,9 Мбит/сек
Аудио: Русский / AC3 / 48 KHz / 5.1 ch / 640 Кбит/сек(лицензия)
Аудио 2: Английский / AC3 / 48 KHz / 5.1 ch / 640 Кбит/сек

ВНИМАНИЕ ! На встроенных ТВ-плеерах работать не будет!!!

ТВ Samsung в названии которого есть надпись Ultra HD , и LG Ultra HD 800 серии, LG C6P, Xiaomi Mi TV 2 воспроизводят полные стереопары встроенными плеерами
Железные плееры на которых воспроизводятся полные стереопары:Popcorn C-200 , Dune HD Smart D1 , Dune HD DUO , Dune HD Smart H1 , Dune HD Smart B1 , Dune HD Max , Dune HD TV-303D, Dune HD TV-102, Dune HD Base 3D, Philips HMP7001, Aura HD, MECOOL BB2
Чтобы изображение было на весь экран в плеере выставляем, если рип 1920х1600 - то выставляем 2.35:1 , если 1920х2160 - то выставляем 16:9

12.04.2019. Релиз обновлён. Русская звуковая дорожка iTunes заменена на лицензию.
Желающие, скачайте заново торрент-файл.
Общее
Уникальный идентификатор : 193132619323892396150514224440022040655 (0x914BFD4E85540599B1DBBA36426E804F)
Полное имя : G:\видео\Spider-Man Into the Spider-Verse.Rip by SeRoGa00.mkv
Формат : Matroska
Версия формата : Version 2
Размер файла : 17,4 Гбайт
Продолжительность : 1 ч. 56 м.
Общий поток : 21,3 Мбит/сек
Дата кодирования : UTC 2019-03-19 04:25:21
Программа кодирования : mkvmerge v3.4.0 ('Rapunzel') сборка от May 15 2010 09:38:20
Библиотека кодирования : libebml v0.8.0 + libmatroska v0.9.0

Видео
Идентификатор : 1
Формат : AVC
Формат/Информация : Advanced Video Codec
Профиль формата : High@L5.0
Параметр CABAC формата : Да
Параметр ReFrames формата : 4 кадра
Идентификатор кодека : V_MPEG4/ISO/AVC
Продолжительность : 1 ч. 56 м.
Битрейт : 20,9 Мбит/сек
Ширина : 1920 пикселей
Высота : 2160 пикселей
Соотношение сторон : 0,889
Частота кадров : 23,976 кадра/сек
Цветовое пространство : YUV
Субдискретизация насыщенности : 4:2:0
Битовая глубина : 8 бит
Тип развёртки : Прогрессивная
Бит/(Пиксели*Кадры) : 0.200
Размер потока : 16,2 Гбайт (93%)
Заголовок : Rip by SeRoGa00
Библиотека кодирования : x264 core 155 r2901 7d0ff22
Настройки программы : cabac=1 / ref=4 / deblock=1:-3:-3 / analyse=0x3:0x113 / me=umh / subme=10 / psy=1 / psy_rd=1.00:0.15 / mixed_ref=1 / me_range=24 / chroma_me=1 / trellis=2 / 8x8dct=1 / cqm=0 / deadzone=21,11 / fast_pskip=1 / chroma_qp_offset=-3 / threads=18 / lookahead_threads=6 / sliced_threads=0 / nr=0 / decimate=0 / interlaced=0 / bluray_compat=0 / constrained_intra=0 / bframes=10 / b_pyramid=2 / b_adapt=2 / b_bias=0 / direct=3 / weightb=1 / open_gop=0 / weightp=2 / keyint=250 / keyint_min=23 / scenecut=40 / intra_refresh=0 / rc_lookahead=60 / rc=crf / mbtree=1 / crf=16.5 / qcomp=0.60 / qpmin=10 / qpmax=69 / qpstep=4 / vbv_maxrate=40000 / vbv_bufsize=40000 / crf_max=0.0 / nal_hrd=none / filler=0 / ip_ratio=1.40 / aq=1:1.00
Язык : English
Default : Нет
Forced : Нет

Аудио #1
Идентификатор : 2
Формат : AC-3
Формат/Информация : Audio Coding 3
Расширение режима : CM (complete main)
Параметр Endianness формата : Big
Идентификатор кодека : A_AC3
Продолжительность : 1 ч. 56 м.
Вид битрейта : Постоянный
Битрейт : 640 Кбит/сек
Каналы : 6 каналов
Расположение каналов : Front: L C R, Side: L R, LFE
Частота : 48,0 КГц
Битовая глубина : 16 бит
Метод сжатия : С потерями
Размер потока : 321 Мбайт (2%)
Язык : Russian
Default : Да
Forced : Нет

Аудио #2
Идентификатор : 3
Формат : AC-3
Формат/Информация : Audio Coding 3
Расширение режима : CM (complete main)
Параметр Endianness формата : Big
Идентификатор кодека : A_AC3
Продолжительность : 1 ч. 56 м.
Вид битрейта : Постоянный
Битрейт : 640 Кбит/сек
Каналы : 6 каналов
Расположение каналов : Front: L C R, Side: L R, LFE
Частота : 48,0 КГц
Битовая глубина : 16 бит
Метод сжатия : С потерями
Размер потока : 535 Мбайт (3%)
Язык : English
Default : Нет
Forced : Нет

Меню
00:00:00.000 : en:00:00:00.000
00:09:03.793 : en:00:09:03.793
00:14:04.717 : en:00:14:04.717
00:18:51.712 : en:00:18:51.712
00:29:39.027 : en:00:29:39.027
00:34:14.635 : en:00:34:14.635
00:40:34.431 : en:00:40:34.431
00:44:22.826 : en:00:44:22.826
00:48:06.884 : en:00:48:06.884
00:58:45.855 : en:00:58:45.855
01:06:04.460 : en:01:06:04.460
01:09:55.481 : en:01:09:55.481
01:20:00.002 : en:01:20:00.002
01:24:54.922 : en:01:24:54.922
01:33:33.399 : en:01:33:33.399
01:55:26.918 : en:01:55:26.918
скриншот  

скриншот  

скриншот  

скриншот  

скриншот  

скриншот  
pb.wtf



Скачать Человек-паук: Через вселенные в 3Д через торрент https://d.radikal.ru/d09/1903/c7/20e845daebf3.png Скачать фильм Человек-паук: Через вселенные в 3Д через торрент бесплантно в хорошем качестве Описание: Мы всё знаем о Питере Паркере. Он спас город, влюбился, а потом спасал город снова и снова… Но все это — в нашем измерении. А что ... 8.2 10 6
Info! Золотая раздача, скачанное не засчитывается.
Торрент: Зарегистрирован [2019-04-12 14:18] · скачан: 19 раз
Статус: √ проверено
Размер: 18.43 GB
Как cкачать? Как скачать Человек-паук: Через вселенные в 3Д через торрент | qTorrent



Последний раз редактировалось: serega768 (2019-04-12 14:18), всего редактировалось 1 раз
Отключить всю рекламу на сайте

22-03-2019 06:04 Человек-паук: Через вселенные в 3Д Скачать торрент  

12.04.2019. Релиз обновлён. Русская звуковая дорожка iTunes заменена на лицензию.
Желающие, скачайте заново торрент-файл.pb.wtf



    Дорогой пользователь! Огромная просьба, поблагодарите релизера, оцените раздачу и оставьте свои комментарий, если Вы скачали Человек-паук: Через вселенные в 3Д через торрент бесплатно! Внесите свою лепту в развитие PiratBit!
    Комментировать посты могут только пользователи прошедшие не сложную регистрацию
    Показать сообщения:    

    Человек-паук: Через вселенные в 3Д через торрент
    Скачать бесплатно Человек-паук: Через вселенные в 3Д
    Человек-паук: Через вселенные в 3Д скачать торрент
    Человек-паук: Через вселенные в 3Д смотреть онлайн
    Cкачать фильм Человек-паук: Через вселенные в 3Д бесплатно
    Человек-паук: Через вселенные в 3Д скачать торрент в хорошем качестве
    Человек-паук: Через вселенные в 3Д смотреть онлайн бесплатно в хорошем качестве


    Вы не можете начинать темы
    Вы не можете отвечать на сообщения
    Вы не можете редактировать свои сообщения
    Вы не можете удалять свои сообщения
    Вы не можете голосовать в опросах
    Вы не можете прикреплять файлы к сообщениям
    Вы можете скачивать файлы