Ссылка на приватное зеркало нашего сайта всего за 1$. Внимание количество ограничено!!!

2 сезон

iTunes

1 сезон

1

2 сезон

2 сезон

iTunes

1 сезон

RePack

30

Ultimate

ВАЖНО

ИГРА 18+

pack

RePack

MK11
pack

Забери бонус

RePack

jed

!!Акция!!

Alien_Rage

RePack

fifa19

RePack

Assassins Creed: Odyssey

RePack

NEED FOR SPEED™ PAYBACK

4 сезон

9 сезон

Бесстыжие 9 сезон

Все сериалы

все сериалы на PB.wtf

RePack

FAR CRY 5
  

Новый Амстердам / New Amsterdam / Сезон: 1 / Серии: 1-21 из 22 (Кейт Дэннис) [2018, детектив, WEB-DL 1080p] MVO [TVShows] pb.wtf

Новый Амстердам через торрент pb.wtf

Размер: 44.74 GB | Добавлен: 1 год 5 мес. назад | Торрент скачан:8 раз
Скачать  

19-03-2019 06:20 Новый Амстердам Скачать торрент  

Новый Амстердам | New Amsterdam Год выпуска: 2018
Страна: США
Жанр: Драма
Продолжительность: ~ 00:43:00
Перевод: Профессиональный (многоголосый закадровый) ||TVShows||
Субтитры: английские

Режиссёр: Кейт Дэннис

В ролях:

Кристофер Кассарино, Стэйси Элис Коэн, Стэйси Рэймонд, Лиззи ДеКлемент, Вера Лам, Райан Эгголд, Фрима Аджьеман, Джанет Монтгомери, Джоко Симс, Анупам Кхер

Описание:

Опытный специалист Макс Гудвин становится новым главврачом старейшей государственной больницы США «Новый Амстердам». Его цель — вернуть былой престиж больнице, в которой сейчас не хватает персонала, оборудования и финансирования. Несмотря на все его старания, сотрудники пока не готовы довериться Гудвину: его предшественники также обещали привести больницу в порядок, но их заверения оставались просто словами.




Качество: WEB-DL 1080p
Формат: MKV

Видео: 1920x1080 (16:9) | X264 | ~4002 kbps | 23.976 fps
Аудио 1: AC3, 48,0 КГц, 6 ch, 384 kbps - Rus
Аудио 2: E-AC3, 48,0 КГц, 6 ch, 640 kbps - Eng
General
Unique ID : 188403207899332593091553484287784737206 (0x8DBD235214855B53D49673336F5759B6)
Complete name : C:\Users\вов\Desktop\New.Amsterdam.S01.1080p.TVShows\New.Amsterdam.S01E01.1080p.TVShows.mkv
Format : Matroska
Format version : Version 4 / Version 2
File size : 1.51 GiB
Duration : 43 min 15 s
Overall bit rate : 5 000 kb/s
Encoded date : UTC 2018-10-23 21:47:33
Writing application : mkvmerge v24.0.0 ('Beyond The Pale') 64-bit
Writing library : libebml v1.3.6 + libmatroska v1.4.9

Video
ID : 1
Format : AVC
Format/Info : Advanced Video Codec
Format profile : High@L4
Format settings : CABAC / 4 Ref Frames
Format settings, CABAC : Yes
Format settings, ReFrames : 4 frames
Codec ID : V_MPEG4/ISO/AVC
Duration : 42 min 59 s
Bit rate : 4 002 kb/s
Width : 1 920 pixels
Height : 1 080 pixels
Display aspect ratio : 16:9
Frame rate mode : Constant
Frame rate : 23.976 (24000/1001) FPS
Color space : YUV
Chroma subsampling : 4:2:0
Bit depth : 8 bits
Scan type : Progressive
Bits/(Pixel*Frame) : 0.080
Stream size : 1.20 GiB (80%)
Default : Yes
Forced : No
Color range : Limited
Color primaries : BT.709
Transfer characteristics : BT.709
Matrix coefficients : BT.709

Audio #1
ID : 2
Format : AC-3
Format/Info : Audio Coding 3
Codec ID : A_AC3
Duration : 43 min 15 s
Bit rate mode : Constant
Bit rate : 384 kb/s
Channel(s) : 6 channels
Channel positions : Front: L C R, Side: L R, LFE
Sampling rate : 48.0 kHz
Frame rate : 31.250 FPS (1536 SPF)
Bit depth : 16 bits
Compression mode : Lossy
Stream size : 119 MiB (8%)
Title : TVShows
Language : Russian
Service kind : Complete Main
Default : Yes
Forced : Yes

Audio #2
ID : 3
Format : E-AC-3
Format/Info : Enhanced Audio Coding 3
Codec ID : A_EAC3
Duration : 42 min 59 s
Bit rate mode : Constant
Bit rate : 640 kb/s
Channel(s) : 6 channels
Channel positions : Front: L C R, Side: L R, LFE
Sampling rate : 48.0 kHz
Frame rate : 187.500 FPS (256 SPF)
Compression mode : Lossy
Stream size : 197 MiB (13%)
Title : Original
Language : English
Service kind : Complete Main
Default : No
Forced : No

Text
ID : 4
Format : UTF-8
Codec ID : S_TEXT/UTF8
Codec ID/Info : UTF-8 Plain Text
Duration : 42 min 56 s
Bit rate : 88 b/s
Count of elements : 1085
Stream size : 27.9 KiB (0%)
Title : English
Language : English
Default : No
Forced : No
Когда раздача ведётся путём добавления новых серий, при каждом добавлении создётся новый торрент. Чтобы начать докачку новой серии, пользователям необходимо сделать следующее:
(1) остановить скачивание,
(2) удалить старый торрент у себя из клиента (старые серии удалять не надо),
(3) скачать новый торрент и запустить его у себя в клиенте вместо старого, при этом указать клиенту путь в старую папку, куда и должно происходить скачивание новых серий.
Ваш клиент при этом должен произвести хеширование (проверку) старой папки (если не производит сам - помогите ему сделать это), и будет докачивать только те серии, которых у вас ещё нет. Старые серии при этом не удаляются, а продолжают раздаваться!
Eсли вы уже удалили старые серии, то предотвратить повторную закачку старых серий можно, отжав галочку в соответсвующих местах при запуске нового торрента. По возможности, желательно не удалять старые серии как можно дольше, чтобы релизёр не столько продолжал раздавать старые серии, а смог сконцентрироваться на новых.
pb.wtf



Скачать Новый Амстердам через торрент http://d.radikal.ru/d22/1903/c3/bdacebf13db6.jpg Скачать фильм Новый Амстердам через торрент бесплантно в хорошем качестве Описание: Опытный специалист Макс Гудвин становится новым главврачом старейшей государственной больницы США «Новый Амстердам». Его цель — ... 10 10 2
Торрент: Зарегистрирован [2019-05-29 16:07] · скачан: 8 раз
Статус: √ проверено
Размер: 44.74 GB
Как cкачать? Как скачать Новый Амстердам через торрент | qTorrent

28-11-2019 20:33  

Отключить всю рекламу на сайте

    Дорогой пользователь! Огромная просьба, поблагодарите релизера, оцените раздачу и оставьте свои комментарий, если Вы скачали Новый Амстердам через торрент бесплатно! Внесите свою лепту в развитие PiratBit!
    Комментировать посты могут только пользователи прошедшие не сложную регистрацию
    Показать сообщения:    

    Новый Амстердам через торрент
    Скачать бесплатно Новый Амстердам
    Новый Амстердам скачать торрент
    Новый Амстердам смотреть онлайн
    Cкачать фильм Новый Амстердам бесплатно
    Новый Амстердам скачать торрент в хорошем качестве
    Новый Амстердам смотреть онлайн бесплатно в хорошем качестве


    Вы не можете начинать темы
    Вы не можете отвечать на сообщения
    Вы не можете редактировать свои сообщения
    Вы не можете удалять свои сообщения
    Вы не можете голосовать в опросах
    Вы не можете прикреплять файлы к сообщениям
    Вы можете скачивать файлы