Ссылка на приватное зеркало нашего сайта всего за 1$. Внимание количество ограничено!!!

2 сезон

iTunes

1 сезон

1

2 сезон

2 сезон

iTunes

1 сезон

RePack

30

Ultimate

ВАЖНО

ИГРА 18+

pack

RePack

MK11
pack

Забери бонус

RePack

jed

!!Акция!!

Alien_Rage

RePack

fifa19

RePack

Assassins Creed: Odyssey

RePack

NEED FOR SPEED™ PAYBACK

4 сезон

9 сезон

Бесстыжие 9 сезон

Все сериалы

все сериалы на PB.wtf

RePack

FAR CRY 5
  

Бамблби / Bumblebee (Трэвис Найт) [2018, фантастика, боевик, приключения, BDRip 1080p] [DUB] [Лицензия] + 2x[MVO] (СВ Студия, HDRezka Studio) pb.wtf

Бамблби через торрент pb.wtf

Раздают: 3 [ 0 KB/s ]
Размер: 8.47 GB | Добавлен: 1 год 8 мес. назад | Торрент скачан:1109 раз
Скачать  

19-03-2019 07:34 Бамблби Скачать торрент  

Бамблби / Bumblebee
Год выпуска: 2018
Страна: США
Жанр: фантастика, боевик, приключения
Продолжительность: 01:53:53
Перевод 1: Дублированный [Лицензия]
Перевод 2: Профессиональный (многоголосый) | СВ Студия
Перевод 3: Профессиональный (многоголосый) |HDRezka Studio
Субтитры: Русские, английские

Режиссер: Трэвис Найт

В ролях: Дилан О Брайен, Хейли Стайнфелд, Джастин Теру, Джон Сина, Анджела Бассетт, Памела Адлон, Мегин Прайс, Грэй ДеЛисл, Питер Каллен, Кеннет Чои

Описание: 1987 год. Скрываясь от преследования, Бамблби находит убежище на автомобильной свалке в калифорнийском городке, где живет Чарли. Девушке скоро исполнится 18, она стремится найти свое место в жизни. И именно она наталкивается на покореженного и сломленного Бамблби. Приведя его в чувство, Чарли моментально осознает: на ее пути оказался не простой желтый Фольксваген Жук...

ratingскриншот  

Качество : BDRip 1080p
Формат видео : MKV
Видео : MPEG-4 AVC, 8978 Кбит/с, 1920х1080, 23.976 Кадр/с
Звук 1: 48 kHz, AC3 Dolby Digital, 6 ch, ~640 kbps - Лицензия
Звук 2: 48 kHz, AC3 Dolby Digital, 2 ch, ~192 kbps - СВ Студия
Звук 3: 48 kHz, AC3 Dolby Digital, 2 ch, ~192 kbps - HDRezka Studio
Звук 4: 48 kHz, E-AC3 Dolby Digital, 6 ch, ~640 kbps - английский
General
Unique ID : 135018219835281955256772827844946336636 (0x65939031EDEFE10E2E5D9EA8A66E9B7C)
Complete name : E:\Bumblebee.2018.BDRip.1080p.mkv
Format : Matroska
Format version : Version 4 / Version 2
File size : 8.47 GiB
Duration : 1 h 53 min
Overall bit rate : 10.6 Mb/s
Encoded date : UTC 2019-03-23 14:17:31
Writing application : mkvmerge v32.0.0 ('Astral Progressions') 64-bit
Writing library : libebml v1.3.7 + libmatroska v1.5.0

Video
ID : 1
Format : AVC
Format/Info : Advanced Video Codec
Format profile : High@L4.1
Format settings : CABAC / 4 Ref Frames
Format settings, CABAC : Yes
Format settings, RefFrames : 4 frames
Codec ID : V_MPEG4/ISO/AVC
Duration : 1 h 53 min
Bit rate : 8 978 kb/s
Width : 1 920 pixels
Height : 1 080 pixels
Display aspect ratio : 16:9
Frame rate mode : Constant
Frame rate : 23.976 (24000/1001) FPS
Color space : YUV
Chroma subsampling : 4:2:0
Bit depth : 8 bits
Scan type : Progressive
Bits/(Pixel*Frame) : 0.181
Stream size : 6.97 GiB (82%)
Writing library : x264 core 157 r2935 545de2f
Encoding settings : cabac=1 / ref=4 / deblock=1:-3:-3 / analyse=0x3:0x113 / me=umh / subme=8 / psy=1 / psy_rd=1.00:0.00 / mixed_ref=1 / me_range=16 / chroma_me=1 / trellis=1 / 8x8dct=1 / cqm=0 / deadzone=21,11 / fast_pskip=1 / chroma_qp_offset=-2 / threads=30 / lookahead_threads=5 / sliced_threads=0 / nr=0 / decimate=1 / interlaced=0 / bluray_compat=0 / constrained_intra=0 / bframes=3 / b_pyramid=2 / b_adapt=1 / b_bias=0 / direct=3 / weightb=1 / open_gop=0 / weightp=2 / keyint=250 / keyint_min=23 / scenecut=40 / intra_refresh=0 / rc_lookahead=50 / rc=2pass / mbtree=1 / bitrate=8978 / ratetol=1.0 / qcomp=0.60 / qpmin=0 / qpmax=69 / qpstep=4 / cplxblur=20.0 / qblur=0.5 / ip_ratio=1.40 / aq=1:1.00
Language : English
Default : Yes
Forced : No

Audio #1
ID : 2
Format : AC-3
Format/Info : Audio Coding 3
Format settings, Endianness : Big
Codec ID : A_AC3
Duration : 1 h 53 min
Bit rate mode : Constant
Bit rate : 640 kb/s
Channel(s) : 6 channels
Channel positions : Front: L C R, Side: L R, LFE
Sampling rate : 48.0 kHz
Frame rate : 31.250 FPS (1536 SPF)
Bit depth : 16 bits
Compression mode : Lossy
Stream size : 521 MiB (6%)
Title : Dub [License]
Language : Russian
Service kind : Complete Main
Default : Yes
Forced : Yes

Audio #2
ID : 3
Format : AC-3
Format/Info : Audio Coding 3
Format settings, Endianness : Big
Codec ID : A_AC3
Duration : 1 h 53 min
Bit rate mode : Constant
Bit rate : 192 kb/s
Channel(s) : 2 channels
Channel positions : Front: L R
Sampling rate : 48.0 kHz
Frame rate : 31.250 FPS (1536 SPF)
Bit depth : 16 bits
Compression mode : Lossy
Stream size : 156 MiB (2%)
Title : MVO [СВ Студия]
Language : Russian
Service kind : Complete Main
Default : No
Forced : No

Audio #3
ID : 4
Format : AC-3
Format/Info : Audio Coding 3
Format settings, Endianness : Big
Codec ID : A_AC3
Duration : 1 h 53 min
Bit rate mode : Constant
Bit rate : 192 kb/s
Channel(s) : 2 channels
Channel positions : Front: L R
Sampling rate : 48.0 kHz
Frame rate : 31.250 FPS (1536 SPF)
Bit depth : 16 bits
Compression mode : Lossy
Stream size : 156 MiB (2%)
Title : MVO [HDRezka Studio]
Language : Russian
Service kind : Complete Main
Default : No
Forced : No

Audio #4
ID : 5
Format : AC-3
Format/Info : Audio Coding 3
Format settings, Endianness : Big
Codec ID : A_AC3
Duration : 1 h 53 min
Bit rate mode : Constant
Bit rate : 640 kb/s
Channel(s) : 6 channels
Channel positions : Front: L C R, Side: L R, LFE
Sampling rate : 48.0 kHz
Frame rate : 31.250 FPS (1536 SPF)
Bit depth : 16 bits
Compression mode : Lossy
Stream size : 521 MiB (6%)
Title : Original
Language : English
Service kind : Complete Main
Default : No
Forced : No

Text #1
ID : 6
Format : UTF-8
Codec ID : S_TEXT/UTF8
Codec ID/Info : UTF-8 Plain Text
Title : Forced
Language : Russian
Default : Yes
Forced : Yes

Text #2
ID : 7
Format : UTF-8
Codec ID : S_TEXT/UTF8
Codec ID/Info : UTF-8 Plain Text
Title : Full
Language : Russian
Default : No
Forced : No

Text #3
ID : 8
Format : UTF-8
Codec ID : S_TEXT/UTF8
Codec ID/Info : UTF-8 Plain Text
Language : English
Default : No
Forced : No

Menu
00:00:00.000 : en:00:00:00.000
00:03:30.710 : en:00:03:30.710
00:12:16.486 : en:00:12:16.486
00:16:56.724 : en:00:16:56.724
00:21:03.053 : en:00:21:03.053
00:26:42.601 : en:00:26:42.601
00:32:33.326 : en:00:32:33.326
00:39:44.090 : en:00:39:44.090
00:45:18.591 : en:00:45:18.591
00:50:43.624 : en:00:50:43.624
00:54:16.253 : en:00:54:16.253
01:01:10.709 : en:01:01:10.709
01:06:26.900 : en:01:06:26.900
01:11:39.545 : en:01:11:39.545
01:16:08.105 : en:01:16:08.105
01:21:37.142 : en:01:21:37.142
01:25:08.603 : en:01:25:08.603
01:30:15.410 : en:01:30:15.410
01:36:46.801 : en:01:36:46.801
01:43:52.560 : en:01:43:52.560
01:49:43.202 : en:01:49:43.202
скриншот  скриншот  скриншот  
pb.wtf



Скачать Бамблби через торрент https://b.radikal.ru/b16/1901/b1/f19b3472e198.png Скачать фильм Бамблби через торрент бесплантно в хорошем качестве Описание: 1987 год. Скрываясь от преследования, Бамблби находит убежище на автомобильной свалке в калифорнийском городке, где живет Чарли. ... 9.4 10 40
Info! Золотая раздача, скачанное не засчитывается.
Торрент: Зарегистрирован [2019-03-23 20:32] · скачан: 1 109 раз
Статус: √ проверено
Размер: 8.47 GB
Как cкачать? Как скачать Бамблби через торрент | qTorrent

% Раздел Тема Автор DL S | L
Фильмы (HD 720p, 1080p) (48-60 fps) [ 4.52 GB ] Бамблби / Bumblebee [2018 BDRip 720p / 60 FPS ] от R.G. HD-Films slaventi-69 Скачать
3 | 0
Фильмы [HD 720p, 1080p] (Хороший звук DUB, MVO) [ 16.15 GB ] Бамблби / Bumblebee [2018 BDRip 1080p] DUB [] + 2xMVO [СВ Студия HDRezka Studio] sheker187 Скачать
2 | 0
Фильмы (Blu-ray, BD-Remux, HDDVD) [ 26.5 GB ] Бамблби / Bumblebee [2018 BDRemux 1080p] DUB [] + 2xMVO [СВ Студия HDRezka Studio] sheker187 Скачать
1 | 0
Фильмы 2018 [DVDrip, WEB-DLRip, HDrip] (DUB, MVO) [ 1.46 GB ] Бамблби / Bumblebee [2018 BDRip] - [] Twi7ter Скачать
6 | 0
Фильмы 2018 [DVDrip, WEB-DLRip, HDrip] (DUB, MVO) [ 2.19 GB ] Бамблби / Bumblebee [2018 BDRip] - [] Twi7ter Скачать
2 | 0
Фильмы [HD 720p, 1080p] (Хороший звук DUB, MVO) [ 8.21 GB ] Бамблби / Bumblebee [2018 BDRip 720p] DUB [] + 2xMVO [СВ Студия HDRezka Studio] sheker187 Скачать
2 | 0
Ultra HD (UHD: 2K, 4K, 8K) — видео сверхвысокой чёткости [ 33.48 GB ] Бамблби / Bumblebee [2018 UHD BDRip 2160p] [SDR] DUB [] + 2xMVO [СВ Студия HDRezka Studio] sheker187 Скачать
1 | 0


Последний раз редактировалось: killermax2013 (2019-03-23 20:34), всего редактировалось 3 раз(а)

28-11-2019 20:33  

Отключить всю рекламу на сайте

20-03-2019 11:40 Бамблби Скачать торрент  

Дождался, спасибо)pb.wtf



22-03-2019 11:58 Бамблби Скачать торрент  

К сожалению, у меня почему-то нету звука.pb.wtf



23-03-2019 20:23 Бамблби Скачать торрент  

Редкостная муть...pb.wtf



19-04-2019 13:00 Бамблби Скачать торрент  

Отличный фильм, веселый, добрый, зрелищный и динамичный! Для всей семьи)pb.wtf



    Дорогой пользователь! Огромная просьба, поблагодарите релизера, оцените раздачу и оставьте свои комментарий, если Вы скачали Бамблби через торрент бесплатно! Внесите свою лепту в развитие PiratBit!
    Комментировать посты могут только пользователи прошедшие не сложную регистрацию
    Показать сообщения:    

    Бамблби через торрент
    Скачать бесплатно Бамблби
    Бамблби скачать торрент
    Бамблби смотреть онлайн
    Cкачать фильм Бамблби бесплатно
    Бамблби скачать торрент в хорошем качестве
    Бамблби смотреть онлайн бесплатно в хорошем качестве


    Вы не можете начинать темы
    Вы не можете отвечать на сообщения
    Вы не можете редактировать свои сообщения
    Вы не можете удалять свои сообщения
    Вы не можете голосовать в опросах
    Вы не можете прикреплять файлы к сообщениям
    Вы можете скачивать файлы