новый адрес
Ссылка на приватное зеркало всего за 1$. Внимание количество ограничено!!!

iTunes

1+1

iTunes

мы

WEB-DL

1

iTunes

Чернобыль

iTunes

Ральф против интернета

Лицензия

ПШазам

Лицензия

Оно 2

Лицензия

30
pack

Вам бонус

ВАЖНО

!!Акция!!

Alien_RageХит недели

RePack

Resident Evil 21

ИГРА 18+

pack

RePack

jed

!!Акция!!

Alien_Rage

RePack

fifa19

RePack

Assassins Creed: Odyssey

RePack

NEED FOR SPEED™ PAYBACK

3 сезон

9 сезон

Бесстыжие 9 сезон

Все сериалы

все сериалы на PB.wtf

RePack

FAR CRY 5
Ребята, катастрофически не хватает 1900р. для оплаты серверов за Октябрь (всвязи с блокировками трафик упал в 3 раза), 1-2р., выручайте.
  

Аквамен / Aquaman (Джеймс Ван) [2018, фантастика, фэнтези, боевик, приключения, BDRip-AVC] [IMAX Edition] DUB [Лицензия] pb.wtf

Аквамен через торрент pb.wtf

Размер: 2.18 GB | Добавлен: 8 мес. назад | Торрент скачан:215 раз
Скачать  

19-03-2019 08:12 Аквамен Скачать торрент  

Аквамен / Aquaman
IMAX Edition
Год выпуска: 2018
Страна: Австралия, США
Жанр: фантастика, фэнтези, боевик, приключения
Продолжительность: 02:23:21
Перевод: Дублированный | Лицензия
Субтитры: Русские (форс., полные)

Режиссер: Джеймс Ван

rating

В ролях:

Джейсон Момоа (Arthur), Эмбер Хёрд (Mera), Уиллем Дефо (Vulko), Патрик Уилсон (King Orm), Николь Кидман (Atlanna), Дольф Лундгрен (King Nereus), Яхья Абдул-Матин II (Manta), Темуэра Моррисон (Tom Curry), Луди Линь (Captain Murk), Майкл Бич (Jesse (Manta's Father)), Рэндолл Парк (Dr. Stephen Shin), Грэм МакТавиш (King Atlan)
Описание:

Артур Карри был сыном работника маяка по имени Том Карри и женщины по имени Атланна. Артур уже в подростковом возрасте демонстрировал невероятную силу и скорость, а также возможность дышать под водой и разговаривать с рыбами. Будучи при смерти, Атланна раскрыла мальчику правду: она была Королевой Атлантиды, находившейся в изгнании, и пообещала, что однажды Артур станет правителем семи морей. Его отец дал ему образование и научил управлять своими возможностями, что в конечном итоге помогло ему стать героем по имени Аквамен.

Качество: BDRip-AVC
Формат: MKV

Видео: 960x540 (16:9), 23,976 fps, x264 ~1 727 kbps avg, 0.139 bit/pixel
Аудио: 48 kHz, AC3 Dolby Digital, 3/2 (L,C,R,l,r) + LFE ch, ~448.00 kbps avg | RUS (Лицензия)
скриншот  скриншот  скриншот  скриншот  скриншот  

Общее
Уникальный идентификатор : 21522523807221879311015134059555194646 (0x10311659CFB0EA5AB7D44868AAA80716)
Полное имя : F:OlLanDGroupAquaman.2018.BDRip(AVC).OllanDGroup.mkv
Формат : Matroska
Версия формата : Version 4 / Version 2
Размер файла : 2,18 Гбайт
Продолжительность : 2 ч. 23 м.
Общий поток : 2176 Кбит/сек
Название фильма : Aquaman 2018 #TorpedoUK#
Дата кодирования : UTC 2019-03-19 07:42:37
Программа кодирования : mkvmerge v29.0.0 ('Like It Or Not') 64-bit
Библиотека кодирования : libebml v1.3.6 + libmatroska v1.4.9

Видео
Идентификатор : 1
Формат : AVC
Формат/Информация : Advanced Video Codec
Профиль формата : High@L4.1
Параметр CABAC формата : Да
Параметр ReFrames формата : 10 кадров
Идентификатор кодека : V_MPEG4/ISO/AVC
Продолжительность : 2 ч. 23 м.
Битрейт : 1727 Кбит/сек
Ширина : 960 пикселей
Высота : 540 пикселей
Соотношение сторон : 16:9
Режим частоты кадров : Постоянный
Частота кадров : 23,976 (24000/1001) кадра/сек
Цветовое пространство : YUV
Субдискретизация насыщенности : 4:2:0
Битовая глубина : 8 бит
Тип развёртки : Прогрессивная
Бит/(Пиксели*Кадры) : 0.139
Размер потока : 1,73 Гбайт (79%)
Библиотека кодирования : x264 core 146 r2538 121396c
Настройки программы : cabac=1 / ref=10 / deblock=1:-3:-3 / analyse=0x3:0x113 / me=umh / subme=11 / psy=1 / psy_rd=0.98:0.04 / mixed_ref=1 / me_range=48 / chroma_me=1 / trellis=2 / 8x8dct=1 / cqm=0 / deadzone=21,11 / fast_pskip=1 / chroma_qp_offset=-3 / threads=6 / lookahead_threads=1 / sliced_threads=0 / nr=0 / decimate=1 / interlaced=0 / bluray_compat=0 / constrained_intra=0 / bframes=11 / b_pyramid=2 / b_adapt=2 / b_bias=0 / direct=3 / weightb=1 / open_gop=0 / weightp=2 / keyint=240 / keyint_min=23 / scenecut=40 / intra_refresh=0 / rc_lookahead=40 / rc=2pass / mbtree=0 / bitrate=1727 / ratetol=1.0 / qcomp=0.60 / qpmin=0 / qpmax=69 / qpstep=4 / cplxblur=20.0 / qblur=0.5 / vbv_maxrate=50000 / vbv_bufsize=62500 / nal_hrd=none / filler=0 / ip_ratio=1.40 / pb_ratio=1.30 / aq=1:1.00
Default : Да
Forced : Нет

Аудио
Идентификатор : 2
Формат : AC-3
Формат/Информация : Audio Coding 3
Расширение режима : CM (complete main)
Параметр Endianness формата : Big
Идентификатор кодека : A_AC3
Продолжительность : 2 ч. 23 м.
Вид битрейта : Постоянный
Битрейт : 448 Кбит/сек
Каналы : 6 каналов
Расположение каналов : Front: L C R, Side: L R, LFE
Частота : 48,0 КГц
Частота кадров : 31,250 кадров/сек (1536 spf)
Битовая глубина : 16 бит
Метод сжатия : С потерями
Размер потока : 459 Мбайт (21%)
Заголовок : DUB [License]
Язык : Russian
Default : Да
Forced : Нет

Текст #1
Идентификатор : 3
Формат : UTF-8
Идентификатор кодека : S_TEXT/UTF8
Идентификатор кодека/Информация : UTF-8 Plain Text
Продолжительность : 2 ч. 14 м.
Битрейт : 1 бит/сек
Count of elements : 27
Размер потока : 1,23 Кбайт (0%)
Заголовок : Forced
Язык : Russian
Default : Да
Forced : Нет

Текст #2
Идентификатор : 4
Формат : UTF-8
Идентификатор кодека : S_TEXT/UTF8
Идентификатор кодека/Информация : UTF-8 Plain Text
Продолжительность : 2 ч. 22 м.
Битрейт : 55 бит/сек
Count of elements : 1119
Размер потока : 58,0 Кбайт (0%)
Заголовок : Full
Язык : Russian
Default : Нет
Forced : Нет

Меню
00:00:00.000 : en:Chapter 01
00:11:09.294 : en:Chapter 02
00:22:11.622 : en:Chapter 03
00:30:11.018 : en:Chapter 04
00:40:28.718 : en:Chapter 05
00:50:24.647 : en:Chapter 06
01:01:15.755 : en:Chapter 07
01:08:57.091 : en:Chapter 08
01:21:41.271 : en:Chapter 09
01:34:50.435 : en:Chapter 10
01:39:37.430 : en:Chapter 11
01:49:32.816 : en:Chapter 12
02:01:36.539 : en:Chapter 13
02:10:19.895 : en:Chapter 14

pb.wtf



Скачать Аквамен через торрент https://i110.fastpic.ru/big/2019/0319/01/8b736c85e0a223bc565e9e91824b5701.jpg Скачать фильм Аквамен через торрент бесплантно в хорошем качестве Описание: Артур Карри был сыном работника маяка по имени Том Карри и женщины по имени Атланна. Артур уже в подростковом возрасте ... 10 10 5
Торрент: Зарегистрирован [2019-03-19 08:17] · скачан: 215 раз
Статус: √ проверено
Размер: 2.18 GB
Как cкачать? Как скачать Аквамен через торрент | qTorrent

% Раздел Тема Автор DL S | L
3D Фильмы [ 7.47 GB ] Аквамен в 3D / Aquaman in 3D [2018 BDRip 1080p ] Анаглиф slaventi-69 Скачать
2 | 0
Фильмы [HD 720p, 1080p] (Хороший звук DUB, MVO) [ 9.48 GB ] Аквамен / Aquaman [2018 BDRip-HEVC 1080p ] [IMAX Edition] DUB [] bober100 Скачать
5 | 0
Фильмы (HD 720p, 1080p) (48-60 fps) [ 9.4 GB ] Аквамен / Aquaman [2018 BDRip - HEVC 1080p 12 bit 60 FPS] - [] dd2d3 Скачать
11 | 0
Фильмы (WEB-DL 720p, 1080p) [ 6.43 GB ] Аквамен / Aquaman [2018 WEB-DL 1080p] [IMAX Edition] MVO [HDRezka Studio] +DUB bober100 Скачать
22 | 1
3D Фильмы [ 16.94 GB ] Аквамен в 3Д / Aquaman 3D [2018 BDRip 1080p] DUB + MVO [HDRezka Studio] Half SideBySide sheker187 Скачать
4 | 0
Ultra HD (UHD: 2K, 4K, 8K) — видео сверхвысокой чёткости [ 64.33 GB ] Аквамен / Aquaman [2018 UHD BDRemux 2160p] [IMAX Edition] DUB [Dolby Vision] sheker187 Скачать
1 | 0
3D Фильмы [ 25.64 GB ] Аквамен в 3Д / Aquaman 3D [2018 BDRip 1080p] OverUnder / Вертикальная стереопара [ ] serega768 Скачать
1 | 0

28-11-2019 20:33  

Отключить всю рекламу на сайте

    Дорогой пользователь! Огромная просьба, поблагодарите релизера, оцените раздачу и оставьте свои комментарий, если Вы скачали Аквамен через торрент бесплатно! Внесите свою лепту в развитие PiratBit!
    Комментировать посты могут только пользователи прошедшие не сложную регистрацию
    Показать сообщения:    

    Аквамен через торрент
    Скачать бесплатно Аквамен
    Аквамен скачать торрент
    Аквамен смотреть онлайн
    Cкачать фильм Аквамен бесплатно
    Аквамен скачать торрент в хорошем качестве
    Аквамен смотреть онлайн бесплатно в хорошем качестве


    Вы не можете начинать темы
    Вы не можете отвечать на сообщения
    Вы не можете редактировать свои сообщения
    Вы не можете удалять свои сообщения
    Вы не можете голосовать в опросах
    Вы не можете прикреплять файлы к сообщениям
    Вы можете скачивать файлы