Ссылка на приватное зеркало нашего сайта всего за 1$. Внимание количество ограничено!!!

2 сезон

iTunes

1 сезон

1

2 сезон

2 сезон

iTunes

1 сезон

RePack

30

Ultimate

ВАЖНО

ИГРА 18+

pack

RePack

MK11
pack

Забери бонус

RePack

jed

!!Акция!!

Alien_Rage

RePack

fifa19

RePack

Assassins Creed: Odyssey

RePack

NEED FOR SPEED™ PAYBACK

4 сезон

9 сезон

Бесстыжие 9 сезон

Все сериалы

все сериалы на PB.wtf

RePack

FAR CRY 5
  

Враг внутри / The Enemy Within / Сезон: 1 / Серии: 1-13 из 13 (Ричард Дж. Льюис, Марк Пеллингтон, Маризоль Адлер, Лили Марийе) [2019, драма, WEB-DL 1080p] [MVO] (TVShows) pb.wtf

Враг внутри через торрент pb.wtf

Размер: 40.73 GB | Добавлен: 1 год 5 мес. назад | Торрент скачан:1 раз
Скачать  

19-03-2019 08:14 Враг внутри Скачать торрент  

Враг внутри / The Enemy Within Год выпуска: 2019
Страна: США
Жанр: Драма
Продолжительность: ~ 00:43 :00

Перевод: Профессиональный (многоголосый закадровый) TVShows

Режиссёр: Ричард Дж. Льюис, Марк Пеллингтон, Марисоль Торрес, Лили Марийе

В ролях: Дженнифер Карпентер (Erica Shepherd), Моррис Честнат (Will Keaton), Келли Гарнер (Kate Ryan), Ной Миллс (Jason Bragg), Раза Джеффри (Daniel Zain), Кассандра Фриман (Jacqueline Pettigrew), Джеймс Карпинелло (Anthony Cabrera), Ной Бин (Christopher Shepherd), Корал Пенья (Anna Cruz), София Геннуса (Hannah Shepherd)

Описание: Эрику Шепард — бывшего агента ЦРУ и изменницу родины — освобождают из тюрьмы. Вместе с агентом ФБР Уиллом Китоном она должна будет найти опасного преступника, который хорошо ей знаком.

Cэмпл http://sendfile.su/1481509
Качество: WEB-DL 1080p (AMAZON)
Контейнер: MKV
Видео: 1920x1080, 23.976 кадра/сек, MPEG-4 AVC, ~ 12,0 Мбит/сек
Аудио: E-AC3, 48 kHz, 3/2 (L,C,R,l,r) + LFE ch, 384 Кбит/сек
Аудио 2: E-AC3, 48 kHz, 3/2 (L,C,R,l,r) + LFE ch, 640 Кбит/сек
Субтитры: Английские
Реклама: Отсутствует
[pre]Общее
Уникальный идентификатор : 222529197271976365799222411002516199537 (0xA769907FF81EF1FD313E56B36259D871)
Полное имя : I:\Тифайл\Подготовка\The.Enemy.Within.S01.1080p.TVShows\The.Enemy.Within.S01E01.1080p.TVShows.mkv
Формат : Matroska
Версия формата : Version 4 / Version 2
Размер файла : 3,71 Гбайт
Продолжительность : 44 м. 4 с.
Общий поток : 12,0 Мбит/сек
Дата кодирования : UTC 2019-03-12 10:19:22
Программа кодирования : mkvmerge v31.0.0 ('Dolores In A Shoestand') 64-bit
Библиотека кодирования : libebml v1.3.6 + libmatroska v1.4.9

Видео
Идентификатор : 1
Формат : AVC
Формат/Информация : Advanced Video Codec
Профиль формата : High@L4
Параметр CABAC формата : Да
Параметр ReFrames формата : 4 кадра
Идентификатор кодека : V_MPEG4/ISO/AVC
Продолжительность : 43 м. 42 с.
Битрейт : 11,1 Мбит/сек
Ширина : 1920 пикселей
Высота : 1080 пикселей
Соотношение сторон : 16:9
Режим частоты кадров : Постоянный
Частота кадров : 23,976 (24000/1001) кадра/сек
Цветовое пространство : YUV
Субдискретизация насыщенности : 4:2:0
Битовая глубина : 8 бит
Тип развёртки : Прогрессивная
Бит/(Пиксели*Кадры) : 0.223
Размер потока : 3,39 Гбайт (92%)
Язык : English
Default : Да
Forced : Нет
Цветовой диапазон : Limited
Основные цвета : BT.709
Характеристики трансфера : BT.709
Коэффициенты матрицы : BT.709

Аудио #1
Идентификатор : 2
Формат : AC-3
Формат/Информация : Audio Coding 3
Параметр Endianness формата : Big
Идентификатор кодека : A_AC3
Продолжительность : 44 м. 4 с.
Вид битрейта : Постоянный
Битрейт : 384 Кбит/сек
Каналы : 6 каналов
Расположение каналов : Front: L C R, Side: L R, LFE
Частота : 48,0 КГц
Частота кадров : 31,250 кадров/сек (1536 spf)
Битовая глубина : 16 бит
Метод сжатия : С потерями
Размер потока : 121 Мбайт (3%)
Заголовок : TVShows
Язык : Russian
ServiceKind/String : Complete Main
Default : Да
Forced : Да

Аудио #2
Идентификатор : 3
Формат : E-AC-3
Формат/Информация : Enhanced Audio Coding 3
Параметр Endianness формата : Big
Идентификатор кодека : A_EAC3
Продолжительность : 43 м. 42 с.
Вид битрейта : Постоянный
Битрейт : 640 Кбит/сек
Каналы : 6 каналов
Расположение каналов : Front: L C R, Side: L R, LFE
Частота : 48,0 КГц
Частота кадров : 187,500 кадров/сек (256 spf)
Метод сжатия : С потерями
Размер потока : 200 Мбайт (5%)
Заголовок : Original
Язык : English
ServiceKind/String : Complete Main
Default : Нет
Forced : Нет

Текст
Идентификатор : 4
Формат : UTF-8
Идентификатор кодека : S_TEXT/UTF8
Идентификатор кодека/Информация : UTF-8 Plain Text
Продолжительность : 43 м. 8 с.
Битрейт : 72 бит/сек
ElementCount : 820
Размер потока : 22,8 Кбайт (0%)
Заголовок : English
Язык : English
Default : Нет
Forced

скриншот  скриншот  скриншот  

Внимание! Раздача ведётся путём добавления новых серий; при каждом добавлении создаётся новый торрент. Чтобы начать докачку новой серии, пользователям необходимо сделать следующее:
(1) остановить скачивание,
(2) удалить старый торрент у себя из клиента (старые серии удалять не надо),
(3) скачать новый торрент и запустить его у себя в клиенте вместо старого, при этом указать клиенту путь в старую папку куда и должно происходить скачивание новых серий.

Ваш клиент при этом должен произвести хеширование (проверку) старой папки (если не производит сам - помогите ему сделать это), и будет докачивать только те серии которых у вас ещё нет. Старые серии при этом не удаляются, а продолжают раздаваться!

Eсли вы уже удалили старые серии, то предотвратить повторную закачку старых серий можно, отжав галочку в соответствующих местах при запуске нового торрента. По возможности, желательно не удалять старые серии как можно дольше чтобы релизёр не столько продолжал раздавать старые серии, а смог сконцентрироваться на новых.
pb.wtf



Скачать Враг внутри через торрент https://i110.fastpic.ru/big/2019/0302/06/5cb9ef4692fcb9a1896f03828ecd9d06.png Скачать фильм Враг внутри через торрент бесплантно в хорошем качестве Описание: Эрику Шепард — бывшего агента ЦРУ и изменницу родины — освобождают из тюрьмы. Вместе с агентом ФБР Уиллом Китоном она должна ... 10 10 2
Торрент: Зарегистрирован [2019-06-08 11:04] · скачан: 1 раз
Статус: √ проверено
Размер: 40.73 GB
Как cкачать? Как скачать Враг внутри через торрент | qTorrent

% Раздел Тема Автор DL S | L
Зарубежные сериалы [ 41.66 GB ] Враг внутри / The Enemy Within / Сезон: 1 / Серии: 1-13 из 13 [2019 WEB-DL 1080p] [MVO] killermax2013 Скачать
1 | 0
Зарубежные сериалы [ 7.25 GB ] Враг внутри / The Enemy Within / Сезон: 1 / Серии: 1-13 из 13 [2019 WEB-DLRip] MVO [Jaskier] bober100 Скачать
1 | 0
Зарубежные сериалы [ 15.86 GB ] Враг внутри / The Enemy Within / Сезон: 1 / Серии: 1-13 из 13 [2019 WEB-DL 720p] MVO [Jaskier] bober100 Скачать
1 | 0

28-11-2019 20:33  

Отключить всю рекламу на сайте

    Дорогой пользователь! Огромная просьба, поблагодарите релизера, оцените раздачу и оставьте свои комментарий, если Вы скачали Враг внутри через торрент бесплатно! Внесите свою лепту в развитие PiratBit!
    Комментировать посты могут только пользователи прошедшие не сложную регистрацию
    Показать сообщения:    

    Враг внутри через торрент
    Скачать бесплатно Враг внутри
    Враг внутри скачать торрент
    Враг внутри смотреть онлайн
    Cкачать фильм Враг внутри бесплатно
    Враг внутри скачать торрент в хорошем качестве
    Враг внутри смотреть онлайн бесплатно в хорошем качестве


    Вы не можете начинать темы
    Вы не можете отвечать на сообщения
    Вы не можете редактировать свои сообщения
    Вы не можете удалять свои сообщения
    Вы не можете голосовать в опросах
    Вы не можете прикреплять файлы к сообщениям
    Вы можете скачивать файлы