MEGA SALE -50% FORZA HORIZON 4 ULTIMATE+ВСЕ DLC+ОНЛАЙН всего за 599р. 299 руб. (супер цена). Внимание количество ограничено!!!

iTunes

1+1

iTunes

мы

iTunes

1

iTunes

Чернобыль

1 сезон

Ральф против интернета

Лицензия

ПШазам

Лицензия

Игра престолов

Лицензия

30
pack

ВАЖНО

!!Акция!!

Alien_RageХит недели

RePack

Resident Evil 21

ИГРА 18+

pack

RePack

Metro:Exodus

!!Акция!!

Alien_Rage

RePack

fifa19

RePack

Assassins Creed: Odyssey

RePack

NEED FOR SPEED™ PAYBACK

3 сезон

9 сезон

Бесстыжие 9 сезон

Все сериалы

все сериалы на PB.wtf

RePack

FAR CRY 5
Ребята, катастрофически не хватает 7730р. для оплаты серверов за ИЮЛЬ (всвязи с блокировками трафик упал в 3 раза), 1-2р., выручайте.
  

Вдова / The Widow / Сезон: 1 / Серии: 1-8 из 8 (Оливер Блэкберн, Сэмюэл Донован) [2019, Триллер, WEB-DL 1080p] [MVO] (TVShows) pb.wtf

Вдова через торрент pb.wtf

Размер: 21.22 GB | Добавлен: 3 мес. 6 д. назад | Торрент скачан:16 раз
Скачать  

19-03-2019 08:20 Вдова Скачать торрент  

Вдова | The Widow
Год выпуска: 2019
Страна: Великобритания
Жанр: триллер
Продолжительность: ~ 00:47:00

Перевод: Профессиональный (многоголосый закадровый) *TVShows*

Режиссёр: Оливер Блэкберн, Сэмюэл Донован

В ролях: Кейт Бекинсейл, Алекс Кингстон, Бабс Олусанмокун, Чарльз Дэнс, Оулавюр Дарри Оулафссон, Джеки Идо, Барт Фаш, Мэттью Ле Невез и др.
Описание: Муж Джоржии погиб в результате авиакатастрофы. Ну, или так все считают, ведь его тела среди погибших не обнаружилось. Постепенно женщина понимает, что всё гораздо сложнее, чем кажется на первый взгляд, и отправляется в опасное путешествие на поиски пропавшего супруга.
скриншот  

Качество: WEB-DL 1080p
Формат: MKV
Видео: MPEG-4 AVC, ~ 5370 Кбит/с, 1920x1080
Аудио Rus: AC3, 48.0 KHz, 6 channels, 384 kbps
Аудио Eng: E-AC3, 48.0 KHz, 6 channels, 640 kbps
Субтитры: eng
General
Unique ID : 119092305579373814953401755992774431443 (0x599857FFBF4AC9A55E37BD00F4B852D3)
Complete name : E:\The.Widow.S01.1080p.TVShows\The.Widow.S01E01.1080p.TVShows.mkv
Format : Matroska
Format version : Version 4 / Version 2
File size : 3.00 GiB
Duration : 49 min 17 s
Overall bit rate : 8 712 kb/s
Encoded date : UTC 2019-03-17 10:34:31
Writing application : mkvmerge v31.0.0 ('Dolores In A Shoestand') 64-bit
Writing library : libebml v1.3.6 + libmatroska v1.4.9

Video
ID : 1
Format : AVC
Format/Info : Advanced Video Codec
Format profile : High@L4
Format settings : CABAC / 4 Ref Frames
Format settings, CABAC : Yes
Format settings, RefFrames : 4 frames
Codec ID : V_MPEG4/ISO/AVC
Duration : 49 min 17 s
Bit rate mode : Constant
Bit rate : 7 515 kb/s
Nominal bit rate : 10 000 kb/s
Width : 1 920 pixels
Height : 1 080 pixels
Display aspect ratio : 16:9
Frame rate mode : Constant
Frame rate : 25.000 FPS
Color space : YUV
Chroma subsampling : 4:2:0
Bit depth : 8 bits
Scan type : Progressive
Bits/(Pixel*Frame) : 0.145
Stream size : 2.59 GiB (86%)
Default : Yes
Forced : No
Color range : Limited
Color primaries : BT.709
Transfer characteristics : BT.709
Matrix coefficients : BT.709

Audio #1
ID : 2
Format : AC-3
Format/Info : Audio Coding 3
Format settings, Endianness : Big
Codec ID : A_AC3
Duration : 49 min 17 s
Bit rate mode : Constant
Bit rate : 384 kb/s
Channel(s) : 6 channels
Channel positions : Front: L C R, Side: L R, LFE
Sampling rate : 48.0 kHz
Frame rate : 31.250 FPS (1536 SPF)
Bit depth : 16 bits
Compression mode : Lossy
Stream size : 135 MiB (4%)
Title : TVShows
Language : Russian
Service kind : Complete Main
Default : Yes
Forced : Yes

Audio #2
ID : 3
Format : E-AC-3
Format/Info : Enhanced Audio Coding 3
Format settings, Endianness : Big
Codec ID : A_EAC3
Duration : 49 min 17 s
Bit rate mode : Constant
Bit rate : 640 kb/s
Channel(s) : 6 channels
Channel positions : Front: L C R, Side: L R, LFE
Sampling rate : 48.0 kHz
Frame rate : 187.500 FPS (256 SPF)
Compression mode : Lossy
Stream size : 226 MiB (7%)
Title : Original
Language : English
Service kind : Complete Main
Default : No
Forced : No

Text
ID : 4
Format : UTF-8
Codec ID : S_TEXT/UTF8
Codec ID/Info : UTF-8 Plain Text
Title : English
Language : English
Default : No
Forced : No
скриншот  скриншот  скриншот  
Внимание! Раздача ведётся путём добавления новых серий; при каждом добавлении создаётся новый торрент.
Чтобы начать докачку новой серии, пользователям необходимо сделать следующее:
1. Остановить скачивание.
2. Удалить старый торрент у себя из клиента (старые серии удалять не надо).
3. Скачать новый торрент и запустить его у себя в клиенте вместо старого, при этом указать клиенту путь в старую папку куда и должно происходить скачивание новых серий.
Ваш клиент при этом должен произвести хеширование (проверку) старой папки (если не производит сам - помогите ему сделать это), и будет докачивать только те серии которых у вас ещё нет. Старые серии при этом не удаляются, а продолжают раздаваться!
Eсли вы уже удалили старые серии, то предотвратить повторную закачку старых серий можно, отжав галочку в соответствующих местах при запуске нового торрента.
pb.wtf



Скачать Вдова через торрент https://i109.fastpic.ru/big/2019/0305/30/e19dba75ca98e015b3b64df5cddb1c30.jpg Скачать фильм Вдова через торрент бесплантно в хорошем качестве Описание: Муж Джоржии погиб в результате авиакатастрофы. Ну, или так все считают, ведь его тела среди погибших не обнаружилось. Постепенно ... 10 10 2
Торрент: Зарегистрирован [2019-05-15 14:20] · скачан: 16 раз
Статус: √ проверено
Размер: 21.22 GB
Как cкачать? Как скачать Вдова через торрент | qTorrent

% Раздел Тема Автор DL S | L
Зарубежные сериалы [ 6.18 GB ] Вдова / The Widow / Сезон: 1 / Серии: 1-8 из 8 [2019 WEB-DLRip] [MVO] killermax2013 Скачать
2 | 0
Зарубежные сериалы [ 8.4 GB ] Вдова / The Widow / Сезон: 1 / Серии: 1-8 из 8 [2019 WEB-DLRip 720p] [MVO] killermax2013 Скачать
1 | 0
Зарубежные сериалы [ 20.23 GB ] Вдова / The Widow / Сезон: 1 / Серии: 1-8 из 8 [2019 WEB-DL 1080p] 2x[Sub] killermax2013 Скачать
1 | 0
Зарубежные сериалы [ 20.56 GB ] Вдова / The Widow / Сезон: 1 / Серии: 1-8 из 8 [2019 WEB-DL 1080p] [MVO] killermax2013 Скачать
1 | 0


>> Регистрируемся здесь <<






Отзывы и комментарии о схеме читаем и пишем здесь: ---> Отзывы и комментарии о схеме

Новые благодарочки в телеграм довольных пользователей:
скриншот   скриншот   скриншот   скриншот   скриншот
    Дорогой пользователь! Огромная просьба, поблагодарите релизера, оцените раздачу и оставьте свои комментарий, если Вы скачали Вдова через торрент бесплатно! Внесите свою лепту в развитие PiratBit!
    Комментировать посты могут только пользователи прошедшие не сложную регистрацию
    Показать сообщения:    

    Вдова через торрент
    Скачать бесплатно Вдова
    Вдова скачать торрент
    Вдова смотреть онлайн
    Cкачать фильм Вдова бесплатно
    Вдова скачать торрент в хорошем качестве
    Вдова смотреть онлайн бесплатно в хорошем качестве


    Вы не можете начинать темы
    Вы не можете отвечать на сообщения
    Вы не можете редактировать свои сообщения
    Вы не можете удалять свои сообщения
    Вы не можете голосовать в опросах
    Вы не можете прикреплять файлы к сообщениям
    Вы можете скачивать файлы