Ссылка на приватное зеркало нашего сайта всего за 1$. Внимание количество ограничено!!!

2 сезон

iTunes

iTunes

1

iTunes

iTunes

iTunes

WEBRip

iTunes

30
pack

Новость дня

ВАЖНО

!!Акция!!

Alien_RageХит недели

RePack

Horizon Zero Dawn

ИГРА 18+

pack

RePack

jed

!!Акция!!

Alien_Rage

RePack

fifa19

RePack

Assassins Creed: Odyssey

RePack

NEED FOR SPEED™ PAYBACK

4 сезон

9 сезон

Бесстыжие 9 сезон

Все сериалы

все сериалы на PB.wtf

RePack

FAR CRY 5
  

Номер 37 / Nommer 37 (Носифо Думиса) [2018 г., Триллер, WEB-DLRip, Любительский (многоголосый)(Синема УС)] pb.wtf

Номер 37 через торрент pb.wtf

Размер: 1.33 GB | Добавлен: 1 год 6 мес. назад | Торрент скачан:82 раза
Скачать  

19-03-2019 15:27 Номер 37 Скачать торрент  

Номер 37 / Nommer 37
Год выпуска: 2018
Страна: ЮАР
Жанр: Триллер
Продолжительность: 01:50:03
Перевод: Любительский (многоголосый)(Синема УС)
Субтитры: Отсутствуют

Режиссер: Носифо Думиса

rating

В ролях: Иршаад Элли, Эфрам Гордон, Амрейн Исмаил-Эссоп, Элтон Ландрю, Деон Лотз, Дэвид Мануэль, Моник Рокман, Дэнни Росс, Сэнди Шульц, Мэттью Ван Лееве

Описание: Рэндал получает ранение в гангстерских разборках и оказывается прикован к инвалидному креслу. При этом он задолжал криминальному авторитету большую сумму денег. Вскоре Рэндал случайно становится свидетелем убийства наркоторговцами полицейского под прикрытием, и от безысходности решает шантажировать их, подвергая себя и свою девушку Пэм смертельной опасности.

Доп. информация: Присутствуют вставки текстовой рекламы

Качество: WEB-DLRip
Формат: AVI
Видео кодек: XviD
Аудио кодек: AC3
Видео: XviD, 720x304, ~1527 Kbps
Аудио#1: AC-3, 2 ch, 192 Kbps
скриншот   скриншот   скриншот   скриншот  

Общее
Полное имя : C:\_\Номер 37\Number 37 2018 WEB-DLRip.avi
Формат : AVI
Формат/Информация : Audio Video Interleave
Профиль формата : OpenDML
Размер файла : 1,33 Гбайт
Продолжительность : 1 ч. 50 м.
Общий поток : 1731 Кбит/сек

Видео
Идентификатор : 0
Формат : MPEG-4 Visual
Профиль формата : Advanced Simple@L5
Параметр BVOP формата : 2
Параметр QPel формата : Нет
Параметр GMC формата : Без точки перехода
Параметр матрицы формата : Default (H.263)
Идентификатор кодека : XVID
Идентификатор кодека/Подсказка : XviD
Продолжительность : 1 ч. 50 м.
Битрейт : 1527 Кбит/сек
Ширина : 720 пикселей
Высота : 304 пикселя
Соотношение сторон : 2,35:1
Частота кадров : 23,976 (24000/1001) кадра/сек
Цветовое пространство : YUV
Субдискретизация насыщенности : 4:2:0
Битовая глубина : 4 бит
Тип развёртки : Прогрессивная
Метод сжатия : С потерями
Бит/(Пиксели*Кадры) : 0.291
Размер потока : 1,17 Гбайт (88%)
Библиотека кодирования : XviD 1.2.1 (UTC 2008-12-04)

Аудио
Идентификатор : 1
Формат : AC-3
Формат/Информация : Audio Coding 3
Расширение режима : CM (complete main)
Параметр Endianness формата : Big
Идентификатор кодека : 2000
Продолжительность : 1 ч. 50 м.
Вид битрейта : Постоянный
Битрейт : 192 Кбит/сек
Каналы : 2 канала
Расположение каналов : Front: L R
Частота : 48,0 КГц
Частота кадров : 31,250 кадров/сек (1536 spf)
Метод сжатия : С потерями
Размер потока : 151 Мбайт (11%)
Выравнивание : Соединение по промежуткам
Продолжительность промежутка : 32 мс. (0,77 видеокадр)

pb.wtf



Скачать Номер 37 через торрент http://pic1.kartinco.top/images/12/s7l7q.jpg Скачать фильм Номер 37 через торрент бесплантно в хорошем качестве Описание: Рэндал получает ранение в гангстерских разборках и оказывается прикован к инвалидному креслу. При этом он задолжал криминальному ... 10 10 3
Торрент: Зарегистрирован [2019-03-19 15:27] · скачан: 82 раз
Статус: T временная
Размер: 1.33 GB
Как cкачать? Как скачать Номер 37 через торрент | qTorrent

28-11-2019 20:33  

Отключить всю рекламу на сайте

    Дорогой пользователь! Огромная просьба, поблагодарите релизера, оцените раздачу и оставьте свои комментарий, если Вы скачали Номер 37 через торрент бесплатно! Внесите свою лепту в развитие PiratBit!
    Комментировать посты могут только пользователи прошедшие не сложную регистрацию
    Показать сообщения:    

    Номер 37 через торрент
    Скачать бесплатно Номер 37
    Номер 37 скачать торрент
    Номер 37 смотреть онлайн
    Cкачать фильм Номер 37 бесплатно
    Номер 37 скачать торрент в хорошем качестве
    Номер 37 смотреть онлайн бесплатно в хорошем качестве


    Вы не можете начинать темы
    Вы не можете отвечать на сообщения
    Вы не можете редактировать свои сообщения
    Вы не можете удалять свои сообщения
    Вы не можете голосовать в опросах
    Вы не можете прикреплять файлы к сообщениям
    Вы можете скачивать файлы