Ссылка на приватное зеркало всего за 1$. Внимание количество ограничено!!!

OK

1+1

iTunes

мы

OK

1

WEB-DLRip

Джокер

Пифагор

Ведьмак / The Witcher сериал

iTunes

ПШазам

ОК

Оно 2

iTunes

30
pack

Вам бонус

ВАЖНО

!!Акция!!

Alien_RageХит недели

RePack

Resident Evil 21

ИГРА 18+

pack

RePack

jed

RePack

fifa19

RePack

Assassins Creed: Odyssey

RePack

NEED FOR SPEED™ PAYBACK

4 сезон

9 сезон

Бесстыжие 9 сезон

Все сериалы

все сериалы на PB.wtf

RePack

FAR CRY 5
  

Насилие / Pinocchio Project (Violentia) (Ананд Рагхаван) [2018 г., Фантастика, драма, WEB-DLRip, Любительский(многоголосый)(Синема УС) ] pb.wtf

Насилие через торрент pb.wtf

Размер: 1.33 GB | Добавлен: 10 мес. назад | Торрент скачан:94 раза
Скачать  

19-03-2019 15:42 Насилие Скачать торрент  

Насилие / Pinocchio Project (Violentia)
Год выпуска: 2018
Страна: Канада
Жанр: Фантастика, драма
Продолжительность: 01:24:29
Перевод: Любительский (многоголосый)(Синема УС)
Субтитры: Отсутствуют

Режиссер: Ананд Рагхаван

rating

В ролях: Джошуа Дж. Баллард, Меган Чарпентье, Джим Элиасон, Фрэнсис Флэнаган, Тэмми Гиллис, МакКензи Грэй, Эмили Холмс, Бернард Хьюстон, Николь ЛаПлаца, Дэвид Льюис

Описание: После случайной школьной перестрелки дочь ученого и сам стрелок погибли. И теперь доктор использует нано-роботов, чтобы изучить воспоминания психопата, найти причины насилия и способы его лечения.

Доп. информация: Присутствуют вставки текстовой рекламы

Качество: WEB-DLRip
Формат: AVI
Видео кодек: XviD
Аудио кодек: AC3
Видео: XviD, 720x320, ~1852 Kbps
Аудио#1: AC-3, 2 ch, 384 Kbps
скриншот   скриншот   скриншот   скриншот  

Общее
Полное имя : C:\_\Насилие\Violentia 2018 WEB-DLRip.avi
Формат : AVI
Формат/Информация : Audio Video Interleave
Профиль формата : OpenDML
Размер файла : 1,33 Гбайт
Продолжительность : 1 ч. 24 м.
Общий поток : 2248 Кбит/сек

Видео
Идентификатор : 0
Формат : MPEG-4 Visual
Профиль формата : Advanced Simple@L5
Параметр BVOP формата : 2
Параметр QPel формата : Нет
Параметр GMC формата : Без точки перехода
Параметр матрицы формата : Выборочная
Идентификатор кодека : XVID
Идентификатор кодека/Подсказка : XviD
Продолжительность : 1 ч. 24 м.
Битрейт : 1852 Кбит/сек
Ширина : 720 пикселей
Высота : 320 пикселей
Соотношение сторон : 2,25:1
Частота кадров : 23,976 (24000/1001) кадра/сек
Цветовое пространство : YUV
Субдискретизация насыщенности : 4:2:0
Битовая глубина : 8 бит
Тип развёртки : Прогрессивная
Метод сжатия : С потерями
Бит/(Пиксели*Кадры) : 0.335
Размер потока : 1,09 Гбайт (82%)
Библиотека кодирования : XviD 1.2.1 (UTC 2008-12-04)

Аудио
Идентификатор : 1
Формат : AC-3
Формат/Информация : Audio Coding 3
Расширение режима : CM (complete main)
Параметр Endianness формата : Big
Идентификатор кодека : 2000
Продолжительность : 1 ч. 24 м.
Вид битрейта : Постоянный
Битрейт : 384 Кбит/сек
Каналы : 2 канала
Расположение каналов : Front: L R
Частота : 48,0 КГц
Частота кадров : 31,250 кадров/сек (1536 spf)
Метод сжатия : С потерями
Размер потока : 232 Мбайт (17%)
Выравнивание : Соединение по промежуткам
Продолжительность промежутка : 32 мс. (0,77 видеокадр)

pb.wtf



Скачать Насилие через торрент http://pic1.kartinco.top/images/12/1gsth.jpg Скачать фильм Насилие через торрент бесплантно в хорошем качестве Описание: После случайной школьной перестрелки дочь ученого и сам стрелок погибли. И теперь доктор использует нано-роботов, чтобы изучить ... 10 10 1
Торрент: Зарегистрирован [2019-03-19 15:42] · скачан: 94 раз
Статус: T временная
Размер: 1.33 GB
Как cкачать? Как скачать Насилие через торрент | qTorrent



Последний раз редактировалось: oleg8 (2019-03-19 16:00), всего редактировалось 1 раз

28-11-2019 20:33  

Отключить всю рекламу на сайте

19-03-2019 15:47 Насилие Скачать торрент  

19-03-2019 16:04 Насилие Скачать торрент  

Альберт писал(а):

https://www.kinopoisk.ru/film/819452/

ratingpb.wtf



19-03-2019 17:17 Насилие Скачать торрент  

Лол, ну и рейтинг.pb.wtf



20-03-2019 11:30 Насилие Скачать торрент  

DeeMan писал(а):

Лол, ну и рейтинг.

судя по режику и актерскому составу, фильм 2014 года - https://www.kinopoisk.ru/film/819452/ и рейт имдб там - 4.60. хотя, судя по бардаку, который там творится после покупки херяндексом, не удивлюсь если это все брехня)
зы. у режика фильма 2018 года та же фамилия, что и у режика 2014 года. имя отличается. мож сын продолжил недоснятый фильм папашки?pb.wtf



    Дорогой пользователь! Огромная просьба, поблагодарите релизера, оцените раздачу и оставьте свои комментарий, если Вы скачали Насилие через торрент бесплатно! Внесите свою лепту в развитие PiratBit!
    Комментировать посты могут только пользователи прошедшие не сложную регистрацию
    Показать сообщения:    

    Насилие через торрент
    Скачать бесплатно Насилие
    Насилие скачать торрент
    Насилие смотреть онлайн
    Cкачать фильм Насилие бесплатно
    Насилие скачать торрент в хорошем качестве
    Насилие смотреть онлайн бесплатно в хорошем качестве


    Вы не можете начинать темы
    Вы не можете отвечать на сообщения
    Вы не можете редактировать свои сообщения
    Вы не можете удалять свои сообщения
    Вы не можете голосовать в опросах
    Вы не можете прикреплять файлы к сообщениям
    Вы можете скачивать файлы