Ссылка на приватное зеркало всего за 1$. Внимание количество ограничено!!!

OK

1+1

iTunes

мы

OK

1

WEB-DLRip

Джокер

Пифагор

Ведьмак / The Witcher сериал

Лицензия

ПШазам

ОК

Оно 2

iTunes

30
pack

Вам бонус

ВАЖНО

!!Акция!!

Alien_RageХит недели

RePack

Resident Evil 21

ИГРА 18+

pack

RePack

jed

!!Акция!!

Alien_Rage

RePack

fifa19

RePack

Assassins Creed: Odyssey

RePack

NEED FOR SPEED™ PAYBACK

4 сезон

9 сезон

Бесстыжие 9 сезон

Все сериалы

все сериалы на PB.wtf

RePack

FAR CRY 5
  

Резня на вечеринке у бассейна / Pool Party Massacre (Дрю Марвик) [2017, ужасы, комедия, WEB-DL 720p] MVO ["Синема УС"] pb.wtf

Резня на вечеринке у бассейна через торрент pb.wtf

Размер: 3.24 GB | Добавлен: 10 мес. назад | Торрент скачан:12 раз
Скачать  

19-03-2019 16:17 Резня на вечеринке у бассейна Скачать торрент  

Резня на вечеринке у бассейна / Pool Party Massacre Год выпуска: 2017
Страна: США
Жанр: ужасы, комедия
Продолжительность: 01:20:56
Перевод: Любительский (многоголосый) | "Синема УС"
Субтитры: отсутствуют

Режиссер: Дрю Марвик

rating

В ролях:

Алексис Адамс, Салли Бернсвелло, Ник Байер, Пол Кард, Дора Десейнинк, Джимми Гросс, Марк Энтони Джастис, Тревор Лейн, Дрю Марвик, Дженифер Марвик

Описание:

Ничего не предвещало беды в этот летний тёплый денек - кампания подружек из обеспеченных семей просто хотела провести вечеринку у бассейна и хорошо отдохнуть. Однако после появления неизвестного убийцы, выслеживающего и убивающего молодых людей, всё обернулось ночным комаром.

Качество: WEB-DL 720p
Формат: MKV

Видео: h.264, 5 346 kb/s, 1280x720
Аудио#1: Русский, (AC3, 2 ch, 384 Кбит/с)
скриншот  скриншот  скриншот  

Общее
Уникальный идентификатор : 203803741105735791845687123049078860272 (0x99532C3B233932B5919B747DD5C829F0)
Полное имя : D:\Pool.party.massacre.2017.P.WEB-DL.72Op_KOSHARA.mkv
Формат : Matroska
Версия формата : Version 2
Размер файла : 3,24 Гбайт
Продолжительность : 1 ч. 20 м.
Режим общего битрейта : Переменный
Общий поток : 5732 Кбит/сек
Дата кодирования : UTC 2019-03-18 13:35:57
Программа кодирования : mkvmerge v8.3.0 ('Over the Horizon') 64bit
Библиотека кодирования : libebml v1.3.1 + libmatroska v1.4.2

Видео
Идентификатор : 1
Формат : AVC
Формат/Информация : Advanced Video Codec
Профиль формата : High@L4.1
Параметр CABAC формата : Да
Параметр RefFrames формата : 4 кадра
Идентификатор кодека : V_MPEG4/ISO/AVC
Продолжительность : 1 ч. 20 м.
Вид битрейта : Переменный
Битрейт : 5346 Кбит/сек
Максимальный битрейт : 6000 Кбит/сек
Ширина : 1280 пикселей
Высота : 720 пикселей
Соотношение сторон : 16:9
Режим частоты кадров : Постоянный
Частота кадров : 23,976 (24000/1001) кадра/сек
Стандарт вещания : Component
Цветовое пространство : YUV
Субдискретизация насыщенности : 4:2:0
Битовая глубина : 8 бит
Тип развёртки : Прогрессивная
Бит/(Пиксели*Кадры) : 0.237
Размер потока : 2,96 Гбайт (91%)
Default : Да
Forced : Нет
Цветовой диапазон : Limited
Основные цвета : BT.709
Характеристики трансфера : BT.709
Коэффициенты матрицы : BT.709

Аудио
Идентификатор : 2
Формат : AC-3
Формат/Информация : Audio Coding 3
Расширение режима : CM (complete main)
Параметр Endianness формата : Big
Идентификатор кодека : A_AC3
Продолжительность : 1 ч. 20 м.
Вид битрейта : Постоянный
Битрейт : 384 Кбит/сек
Каналы : 2 канала
Расположение каналов : Front: L R
Частота : 48,0 КГц
Частота кадров : 31,250 кадров/сек (1536 spf)
Метод сжатия : С потерями
Размер потока : 222 Мбайт (7%)
Default : Да
Forced : Нет

pb.wtf



Скачать Резня на вечеринке у бассейна через торрент https://d.radikal.ru/d42/1903/7a/5abebc90524a.jpg Скачать фильм Резня на вечеринке у бассейна через торрент бесплантно в хорошем качестве Описание: Ничего не предвещало беды в этот летний тёплый денек - кампания подружек из обеспеченных семей просто хотела провести вечеринку у ... 10 10 2
Торрент: Зарегистрирован [2019-03-19 16:17] · скачан: 12 раз
Статус: T временная
Размер: 3.24 GB
Как cкачать? Как скачать Резня на вечеринке у бассейна через торрент | qTorrent

% Раздел Тема Автор DL S | L
T Фильмы (мультфильмы) cо спонсором показа (Новинки AVI/MKV) [ 1.37 GB ] Резня на вечеринке у бассейна / Pool Party Massacre [2017 WEB-DLRip] MVO ["Синема УС"] bober100 Скачать
1 | 0

28-11-2019 20:33  

Отключить всю рекламу на сайте

    Дорогой пользователь! Огромная просьба, поблагодарите релизера, оцените раздачу и оставьте свои комментарий, если Вы скачали Резня на вечеринке у бассейна через торрент бесплатно! Внесите свою лепту в развитие PiratBit!
    Комментировать посты могут только пользователи прошедшие не сложную регистрацию
    Показать сообщения:    

    Резня на вечеринке у бассейна через торрент
    Скачать бесплатно Резня на вечеринке у бассейна
    Резня на вечеринке у бассейна скачать торрент
    Резня на вечеринке у бассейна смотреть онлайн
    Cкачать фильм Резня на вечеринке у бассейна бесплатно
    Резня на вечеринке у бассейна скачать торрент в хорошем качестве
    Резня на вечеринке у бассейна смотреть онлайн бесплатно в хорошем качестве


    Вы не можете начинать темы
    Вы не можете отвечать на сообщения
    Вы не можете редактировать свои сообщения
    Вы не можете удалять свои сообщения
    Вы не можете голосовать в опросах
    Вы не можете прикреплять файлы к сообщениям
    Вы можете скачивать файлы