Ссылка на приватное зеркало всего за 1$. Внимание количество ограничено!!!

OK

1+1

iTunes

мы

OK

1

WEB-DLRip

Джокер

Пифагор

Ведьмак / The Witcher сериал

iTunes

ПШазам

ОК

Оно 2

iTunes

30
pack

Вам бонус

ВАЖНО

!!Акция!!

Alien_RageХит недели

RePack

Resident Evil 21

ИГРА 18+

pack

RePack

jed

RePack

fifa19

RePack

Assassins Creed: Odyssey

RePack

NEED FOR SPEED™ PAYBACK

4 сезон

9 сезон

Бесстыжие 9 сезон

Все сериалы

все сериалы на PB.wtf

RePack

FAR CRY 5
  

Раскрытие / El Desentierro (The Uncovering) (Начо Руиперес) [2018 г., Триллер, HDRip, Любительский (многоголосый)(Синема УС)] pb.wtf

Раскрытие через торрент pb.wtf

Размер: 1.34 GB | Добавлен: 10 мес. назад | Торрент скачан:39 раз
Скачать  

19-03-2019 16:18 Раскрытие Скачать торрент  

Раскрытие / El Desentierro (The Uncovering)
Год выпуска: 2018
Страна: Испания, Аргентина
Жанр: Триллер
Продолжительность: 01:49:06
Перевод: Любительский (многоголосый)(Синема УС)
Субтитры: Отсутствуют

Режиссер: Начо Руиперес

rating

В ролях: Мишель Нойер, Леонардо Сбараглиа, Хан Корнет, Елена Йованова, Несрин Джавадзаде, Арбен Байрактарай, Франческ Гарридо, Сангмитра Хитаиши, Анна Ивич, Бьянка

Описание: Внезапное появление албанки Веры в городе приводит к тому, что Жорди, только что приехавший из Аргентины на похороны своего дяди-министра, решает провести расследование... Кто знает, чем может обернуться раскрытие тайн двадцатилетней давности?..

Доп. информация: Присутствуют вставки текстовой рекламы

Качество: HDRip
Формат: AVI
Видео кодек: XviD
Аудио кодек: AC3
Видео: XviD, 720x304, ~1564 Kbps
Аудио#1: AC-3, 2 ch, 192 Kbps
скриншот   скриншот   скриншот   скриншот  

Общее
Полное имя : C:\_\Раскрытие\The Uncovering 2018 HDRip.avi
Формат : AVI
Формат/Информация : Audio Video Interleave
Профиль формата : OpenDML
Размер файла : 1,34 Гбайт
Продолжительность : 1 ч. 48 м.
Общий поток : 1768 Кбит/сек

Видео
Идентификатор : 0
Формат : MPEG-4 Visual
Профиль формата : Advanced Simple@L5
Параметр BVOP формата : 2
Параметр QPel формата : Нет
Параметр GMC формата : Без точки перехода
Параметр матрицы формата : Выборочная
Идентификатор кодека : XVID
Идентификатор кодека/Подсказка : XviD
Продолжительность : 1 ч. 48 м.
Битрейт : 1564 Кбит/сек
Ширина : 720 пикселей
Высота : 304 пикселя
Соотношение сторон : 2,35:1
Частота кадров : 23,976 (24000/1001) кадра/сек
Цветовое пространство : YUV
Субдискретизация насыщенности : 4:2:0
Битовая глубина : 8 бит
Тип развёртки : Прогрессивная
Метод сжатия : С потерями
Бит/(Пиксели*Кадры) : 0.298
Размер потока : 1,19 Гбайт (88%)
Библиотека кодирования : XviD 1.2.1 (UTC 2008-12-04)

Аудио
Идентификатор : 1
Формат : AC-3
Формат/Информация : Audio Coding 3
Расширение режима : CM (complete main)
Параметр Endianness формата : Big
Идентификатор кодека : 2000
Продолжительность : 1 ч. 48 м.
Вид битрейта : Постоянный
Битрейт : 192 Кбит/сек
Каналы : 2 канала
Расположение каналов : Front: L R
Частота : 48,0 КГц
Частота кадров : 31,250 кадров/сек (1536 spf)
Метод сжатия : С потерями
Размер потока : 149 Мбайт (11%)
Выравнивание : Соединение по промежуткам
Продолжительность промежутка : 32 мс. (0,77 видеокадр)

pb.wtf



Скачать Раскрытие через торрент http://pic1.kartinco.top/images/12/hqt56.jpg Скачать фильм Раскрытие через торрент бесплантно в хорошем качестве Описание: Внезапное появление албанки Веры в городе приводит к тому, что Жорди, только что приехавший из Аргентины на похороны своего ... 5 10 1
Торрент: Зарегистрирован [2019-03-19 16:18] · скачан: 39 раз
Статус: T временная
Размер: 1.34 GB
Как cкачать? Как скачать Раскрытие через торрент | qTorrent

28-11-2019 20:33  

Отключить всю рекламу на сайте

    Дорогой пользователь! Огромная просьба, поблагодарите релизера, оцените раздачу и оставьте свои комментарий, если Вы скачали Раскрытие через торрент бесплатно! Внесите свою лепту в развитие PiratBit!
    Комментировать посты могут только пользователи прошедшие не сложную регистрацию
    Показать сообщения:    

    Раскрытие через торрент
    Скачать бесплатно Раскрытие
    Раскрытие скачать торрент
    Раскрытие смотреть онлайн
    Cкачать фильм Раскрытие бесплатно
    Раскрытие скачать торрент в хорошем качестве
    Раскрытие смотреть онлайн бесплатно в хорошем качестве


    Вы не можете начинать темы
    Вы не можете отвечать на сообщения
    Вы не можете редактировать свои сообщения
    Вы не можете удалять свои сообщения
    Вы не можете голосовать в опросах
    Вы не можете прикреплять файлы к сообщениям
    Вы можете скачивать файлы