Ссылка на приватное зеркало нашего сайта всего за 1$. Внимание количество ограничено!!!

2 сезон

iTunes

1 сезон

1

2 сезон

2 сезон

iTunes

1 сезон

RePack

30

Новинка

ВАЖНО

ИГРА 18+

pack

RePack

MK11
pack

Забери бонус

RePack

jed

!!Акция!!

Alien_Rage

RePack

fifa19

RePack

Assassins Creed: Odyssey

RePack

NEED FOR SPEED™ PAYBACK

4 сезон

9 сезон

Бесстыжие 9 сезон

Все сериалы

все сериалы на PB.wtf

RePack

FAR CRY 5
  

Сделай погромче, Чарли / Turn Up Charlie / Сезон: 1 / Серии 1-8 из 8 (Мэтт Липси, Тристрам Шапиро) [2019, комедия, WEB-DL 1080p] [DUB] (RuFilms) pb.wtf

Сделай погромче, Чарли через торрент pb.wtf

Размер: 9.88 GB | Добавлен: 1 год 8 мес. назад | Торрент скачан:34 раза
Скачать  

19-03-2019 16:30 Сделай погромче, Чарли Скачать торрент  

Сделай погромче, Чарли / Turn Up Charlie Год выпуска: 2019
Жанр: комедия
Страна: Великобритания
Студия: Brown Eyed Boy, Green Door Picturesn, NetFlix
Продолжительность: ~00:30:00 серия
Перевод: Профессиональный (дублированный) RuFilms по заказу *Netflix*

Режиссер: Мэтт Липси, Тристрам Шапиро

В ролях: Идрис Эльба (Charlie), Пайпер Перабо (Sara), Frankie Hervey (Gabrielle), Джей Джей Филд (David), Анджела Гриффин (Astrid), Джейд Аноука (Tommi), Гуз Кхан (Del), Жослин Жи Эсьён (Lydia), Камерон Кинг (Hunter), Дастин Демри-Бёрнс, Шола Адевузи (Ranti), Эшли Баннерман (Alicia)


О фильме: Чарли - диждей и заядлый холостяк, который наслаждается своей жизнью. Его вроде бы всё устраивает, не хватает только одного - славы и признания. В попытке хоть как-то исправить ситуацию он устраивается на работу к своему знаменитому лучшему другу. Только работка оказывается не из лёгких, ведь надо присматривать за своенравной дочкой приятеля.


rating
Релиз:

Файл

Качество: WEB-DL 1080p
Формат: MKV
Видео: 1920x1080 at 23.976 fps, MPEG-4 AVC, ~6500 kbps avg
Аудио#1: Russian: 48 kHz, AC3, 3/2 (L,C,R,l,r) + LFE ch, ~384 kbps avg |Дубляж, RuFilms по заказу Netflix|
Аудио#2: English: 48 kHz, AC3, 3/2 (L,C,R,l,r) + LFE ch, ~384 kbps avg
Субтитры: Russian (Forced, Full), English



***Примечание: Без рекламы
General
Unique ID : 261177115650607854995246594627442243057 (0xC47CE1FE009EC1B4C9A96264A6A2F5F1)
Complete name : E:\Turn.Up.Charlie.S01.1080p.WEB-DL.Rus.Eng_THD\Turn.Up.Charlie.S01E01.1080p.WEB-DL.Rus.Eng_THD.mkv
Format : Matroska
Format version : Version 4 / Version 2
File size : 1.22 GiB
Duration : 25 min 0 s
Overall bit rate mode : Variable
Overall bit rate : 7 005 kb/s
Movie name : Turn Up Charlie (2019) - Release for TeamHD
Encoded date : UTC 2019-03-17 23:28:17
Writing application : mkvmerge v32.0.0 ('Astral Progressions') 64-bit
Writing library : libebml v1.3.7 + libmatroska v1.5.0

Video
ID : 1
Format : AVC
Format/Info : Advanced Video Codec
Format profile : Main@L4
Format settings : CABAC / 3 Ref Frames
Format settings, CABAC : Yes
Format settings, RefFrames : 3 frames
Codec ID : V_MPEG4/ISO/AVC
Duration : 25 min 0 s
Bit rate mode : Variable
Bit rate : 6 098 kb/s
Nominal bit rate : 6 490 kb/s
Maximum bit rate : 9 735 kb/s
Width : 1 920 pixels
Height : 1 080 pixels
Display aspect ratio : 16:9
Frame rate mode : Constant
Frame rate : 23.976 (24000/1001) FPS
Color space : YUV
Chroma subsampling : 4:2:0
Bit depth : 8 bits
Scan type : Progressive
Bits/(Pixel*Frame) : 0.123
Stream size : 1.07 GiB (87%)
Writing library : x264 core 148 r2715 7e75228
Encoding settings : cabac=1 / ref=3 / deblock=1:0:0 / analyse=0x1:0x111 / me=umh / subme=10 / psy=1 / psy_rd=1.00:0.00 / mixed_ref=1 / me_range=24 / chroma_me=1 / trellis=2 / 8x8dct=0 / cqm=0 / deadzone=21,11 / fast_pskip=1 / chroma_qp_offset=-2 / threads=8 / lookahead_threads=1 / sliced_threads=0 / nr=0 / decimate=1 / interlaced=0 / bluray_compat=0 / stitchable=1 / constrained_intra=0 / bframes=2 / b_pyramid=0 / b_adapt=2 / b_bias=0 / direct=3 / weightb=1 / open_gop=0 / weightp=2 / keyint=48 / keyint_min=25 / scenecut=0 / intra_refresh=0 / rc_lookahead=48 / rc=2pass / mbtree=1 / bitrate=6490 / ratetol=1.0 / qcomp=0.50 / qpmin=6 / qpmax=51 / qpstep=4 / cplxblur=20.0 / qblur=0.5 / vbv_maxrate=9735 / vbv_bufsize=12980 / nal_hrd=vbr / filler=0 / ip_ratio=1.40 / aq=1:1.00
Default : Yes
Forced : No

Audio #1
ID : 2
Format : AC-3
Format/Info : Audio Coding 3
Format settings, Endianness : Big
Codec ID : A_AC3
Duration : 25 min 0 s
Bit rate mode : Constant
Bit rate : 384 kb/s
Channel(s) : 6 channels
Channel positions : Front: L C R, Side: L R, LFE
Sampling rate : 48.0 kHz
Frame rate : 31.250 FPS (1536 SPF)
Bit depth : 16 bits
Compression mode : Lossy
Stream size : 68.7 MiB (5%)
Title : RuFilms
Language : Russian
Service kind : Complete Main
Default : Yes
Forced : No

Audio #2
ID : 3
Format : AC-3
Format/Info : Audio Coding 3
Format settings, Endianness : Big
Codec ID : A_AC3
Duration : 25 min 0 s
Bit rate mode : Constant
Bit rate : 384 kb/s
Channel(s) : 6 channels
Channel positions : Front: L C R, Side: L R, LFE
Sampling rate : 48.0 kHz
Frame rate : 31.250 FPS (1536 SPF)
Bit depth : 16 bits
Compression mode : Lossy
Stream size : 68.7 MiB (5%)
Language : English
Service kind : Complete Main
Default : No
Forced : No

Text #1
ID : 4
Format : UTF-8
Codec ID : S_TEXT/UTF8
Codec ID/Info : UTF-8 Plain Text
Title : Forced
Language : Russian
Default : Yes
Forced : No

Text #2
ID : 5
Format : UTF-8
Codec ID : S_TEXT/UTF8
Codec ID/Info : UTF-8 Plain Text
Language : Russian
Default : No
Forced : No

Text #3
ID : 6
Format : UTF-8
Codec ID : S_TEXT/UTF8
Codec ID/Info : UTF-8 Plain Text
Language : English
Default : No
Forced : No
скриншот  скриншот  скриншот  
pb.wtf



Скачать Сделай погромче, Чарли через торрент https://i4.imageban.ru/out/2019/03/18/687a2f95eced60999391f35b2f9fe045.png Скачать фильм Сделай погромче, Чарли через торрент бесплантно в хорошем качестве О фильме: Чарли - диждей и заядлый холостяк, который наслаждается своей жизнью. Его вроде бы всё устраивает, не хватает только одного - ... 5.5 10 2
Торрент: Зарегистрирован [2019-03-19 16:30] · скачан: 34 раз
Статус: √ проверено
Размер: 9.88 GB
Как cкачать? Как скачать Сделай погромче, Чарли через торрент | qTorrent

28-11-2019 20:33  

Отключить всю рекламу на сайте

    Дорогой пользователь! Огромная просьба, поблагодарите релизера, оцените раздачу и оставьте свои комментарий, если Вы скачали Сделай погромче, Чарли через торрент бесплатно! Внесите свою лепту в развитие PiratBit!
    Комментировать посты могут только пользователи прошедшие не сложную регистрацию
    Показать сообщения:    

    Сделай погромче, Чарли через торрент
    Скачать бесплатно Сделай погромче, Чарли
    Сделай погромче, Чарли скачать торрент
    Сделай погромче, Чарли смотреть онлайн
    Cкачать фильм Сделай погромче, Чарли бесплатно
    Сделай погромче, Чарли скачать торрент в хорошем качестве
    Сделай погромче, Чарли смотреть онлайн бесплатно в хорошем качестве


    Вы не можете начинать темы
    Вы не можете отвечать на сообщения
    Вы не можете редактировать свои сообщения
    Вы не можете удалять свои сообщения
    Вы не можете голосовать в опросах
    Вы не можете прикреплять файлы к сообщениям
    Вы можете скачивать файлы