Ссылка на приватное зеркало всего за 1$. Внимание количество ограничено!!!

OK

1+1

iTunes

мы

OK

1

WEB-DLRip

Джокер

Пифагор

Ведьмак / The Witcher сериал

iTunes

ПШазам

ОК

Оно 2

iTunes

30
pack

Вам бонус

ВАЖНО

!!Акция!!

Alien_RageХит недели

RePack

Resident Evil 21

ИГРА 18+

pack

RePack

jed

RePack

fifa19

RePack

Assassins Creed: Odyssey

RePack

NEED FOR SPEED™ PAYBACK

4 сезон

9 сезон

Бесстыжие 9 сезон

Все сериалы

все сериалы на PB.wtf

RePack

FAR CRY 5
  

Волна преступлений / Ola de crímenes (Грация Керехета) [2018, Комедия, криминал, BDRip 720p] MVO ["Синема УС"] pb.wtf

Волна преступлений через торрент pb.wtf

Размер: 4.86 GB | Добавлен: 10 мес. назад | Торрент скачан:10 раз
Скачать  

19-03-2019 16:33 Волна преступлений Скачать торрент  

Волна преступлений / Ola de crímenes Год выпуска: 2018
Страна: Испания
Жанр: Комедия, криминал
Продолжительность: 01:38:02
Перевод: Любительский (многоголосый) | "Синема УС"
Субтитры: отсутствуют

Режиссер: Грация Керехета

rating

В ролях:

Марибель Верду, Хуана Акоста, Паула Эчеваррия, Антонио Ресинес, Мигель Бернардо, Рауль Пенья, Асьер Рикарте, Рауль Аревало, Луис Тосар, Нора Навас

Описание:

Сын Лейре Бланко, Айсер, случайно убивает своего отца. Чтобы выпутаться из этой истории, Лейре начинает громоздить враньё на враньё, пока не запутавается сама и не запутывает всех вокруг.

Качество: BDRip 720p
Формат: MKV

Видео: h.264, 6 647 Кбит/с, 1280x688
Аудио#1: Русский (AC3, 2 ch, 448 Кбит/с)
скриншот  скриншот  скриншот  

Общее
Уникальный идентификатор : 218233054762024022582704115353188146372 (0xA42E28520F3976D6B7063B53BAC59CC4)
Полное имя : D:\Wave.of.crimes.2018.P.BDRip.72Op.mkv
Формат : Matroska
Версия формата : Version 2
Размер файла : 4,86 Гбайт
Продолжительность : 1 ч. 38 м.
Режим общего битрейта : Переменный
Общий поток : 7096 Кбит/сек
Дата кодирования : UTC 2019-03-18 11:14:26
Программа кодирования : mkvmerge v8.3.0 ('Over the Horizon') 64bit
Библиотека кодирования : libebml v1.3.1 + libmatroska v1.4.2

Видео
Идентификатор : 1
Формат : AVC
Формат/Информация : Advanced Video Codec
Профиль формата : High@L4.1
Параметр CABAC формата : Да
Параметр RefFrames формата : 4 кадра
Идентификатор кодека : V_MPEG4/ISO/AVC
Продолжительность : 1 ч. 38 м.
Вид битрейта : Переменный
Битрейт : 6647 Кбит/сек
Максимальный битрейт : 7500 Кбит/сек
Ширина : 1280 пикселей
Высота : 688 пикселей
Соотношение сторон : 1,85:1
Режим частоты кадров : Постоянный
Частота кадров : 23,976 (24000/1001) кадра/сек
Стандарт вещания : Component
Цветовое пространство : YUV
Субдискретизация насыщенности : 4:2:0
Битовая глубина : 8 бит
Тип развёртки : Прогрессивная
Бит/(Пиксели*Кадры) : 0.308
Размер потока : 4,46 Гбайт (92%)
Default : Да
Forced : Нет
Цветовой диапазон : Limited
Основные цвета : BT.709
Характеристики трансфера : BT.709
Коэффициенты матрицы : BT.709

Аудио
Идентификатор : 2
Формат : AC-3
Формат/Информация : Audio Coding 3
Расширение режима : CM (complete main)
Параметр Endianness формата : Big
Идентификатор кодека : A_AC3
Продолжительность : 1 ч. 38 м.
Вид битрейта : Постоянный
Битрейт : 448 Кбит/сек
Каналы : 2 канала
Расположение каналов : Front: L R
Частота : 48,0 КГц
Частота кадров : 31,250 кадров/сек (1536 spf)
Метод сжатия : С потерями
Размер потока : 314 Мбайт (6%)
Default : Да
Forced : Нет

pb.wtf



Скачать Волна преступлений через торрент https://c.radikal.ru/c42/1903/b2/2ee2b7d179e9.jpg Скачать фильм Волна преступлений через торрент бесплантно в хорошем качестве Описание: Сын Лейре Бланко, Айсер, случайно убивает своего отца. Чтобы выпутаться из этой истории, Лейре начинает громоздить враньё на ... 9.7 10 3
Торрент: Зарегистрирован [2019-03-19 16:33] · скачан: 10 раз
Статус: # сомнительно
Размер: 4.86 GB
Как cкачать? Как скачать Волна преступлений через торрент | qTorrent

% Раздел Тема Автор DL S | L
T Фильмы (мультфильмы) cо спонсором показа (Новинки AVI/MKV) [ 1.37 GB ] Волна преступлений / Ola de crímenes [2018 HDRip] MVO ["Синема УС"] bober100 Скачать
1 | 0

28-11-2019 20:33  

Отключить всю рекламу на сайте


    Дорогой пользователь! Огромная просьба, поблагодарите релизера, оцените раздачу и оставьте свои комментарий, если Вы скачали Волна преступлений через торрент бесплатно! Внесите свою лепту в развитие PiratBit!
    Комментировать посты могут только пользователи прошедшие не сложную регистрацию
    Показать сообщения:    

    Волна преступлений через торрент
    Скачать бесплатно Волна преступлений
    Волна преступлений скачать торрент
    Волна преступлений смотреть онлайн
    Cкачать фильм Волна преступлений бесплатно
    Волна преступлений скачать торрент в хорошем качестве
    Волна преступлений смотреть онлайн бесплатно в хорошем качестве


    Вы не можете начинать темы
    Вы не можете отвечать на сообщения
    Вы не можете редактировать свои сообщения
    Вы не можете удалять свои сообщения
    Вы не можете голосовать в опросах
    Вы не можете прикреплять файлы к сообщениям
    Вы можете скачивать файлы