Ссылка на приватное зеркало всего за 1$. Внимание количество ограничено!!!

OK

1+1

iTunes

мы

OK

1

WEB-DLRip

Джокер

Пифагор

Ведьмак / The Witcher сериал

iTunes

ПШазам

ОК

Оно 2

iTunes

30
pack

Вам бонус

ВАЖНО

!!Акция!!

Alien_RageХит недели

RePack

Resident Evil 21

ИГРА 18+

pack

RePack

jed

RePack

fifa19

RePack

Assassins Creed: Odyssey

RePack

NEED FOR SPEED™ PAYBACK

4 сезон

9 сезон

Бесстыжие 9 сезон

Все сериалы

все сериалы на PB.wtf

RePack

FAR CRY 5
  

Что нас ждёт / What Lies Ahead (Роб Гарднер) [2019, Триллер, WEB-DL 720p] MVO ["Синема УС"] pb.wtf

Что нас ждёт через торрент pb.wtf

Размер: 3.53 GB | Добавлен: 10 мес. назад | Торрент скачан:18 раз
Скачать  

19-03-2019 16:49 Что нас ждёт Скачать торрент  

Что нас ждёт / What Lies AheadГод выпуска: 2019
Страна: США
Жанр: Триллер
Продолжительность: 01:29:31
Перевод: Любительский (многоголосый) | "Синема УС"
Субтитры: отсутствуют

Режиссер: Роб Гарднер

rating

В ролях:

Румер Уиллис, Эмма Дюмон, Келли Блац, Кэти Кин, Брэндон Артур Джонс, Рик Кларк, Джеймс Харпер, Джек Сигал, Че Кунанан, Пол Томпкинс

Описание:

Две девушки отправляются в неожиданное путешествие, где с каждым километром между ними назревает агрессия, накаляя обстановку до предела.

Качество: WEB-DL 720p
Формат: MKV

Видео: h.264, 5 265 Кбит/с, 1280x720
Аудио#1: Русский, (AC3, 2 ch, 384 Кбит/с)
скриншот  скриншот  скриншот  

Общее
Уникальный идентификатор : 187837714152691290106566370779582327004 (0x8D503A5389C7B275B2E9590E7BD268DC)
Полное имя : D:\What.Lies.Ahead.2019.P.WEB-DL.72Op.mkv
Формат : Matroska
Версия формата : Version 2
Размер файла : 3,53 Гбайт
Продолжительность : 1 ч. 29 м.
Режим общего битрейта : Переменный
Общий поток : 5651 Кбит/сек
Дата кодирования : UTC 2019-03-05 20:32:46
Программа кодирования : mkvmerge v8.3.0 ('Over the Horizon') 64bit
Библиотека кодирования : libebml v1.3.1 + libmatroska v1.4.2

Видео
Идентификатор : 1
Формат : AVC
Формат/Информация : Advanced Video Codec
Профиль формата : High@L4.1
Параметр CABAC формата : Да
Параметр RefFrames формата : 4 кадра
Идентификатор кодека : V_MPEG4/ISO/AVC
Продолжительность : 1 ч. 29 м.
Вид битрейта : Переменный
Битрейт : 5265 Кбит/сек
Максимальный битрейт : 6000 Кбит/сек
Ширина : 1280 пикселей
Высота : 720 пикселей
Соотношение сторон : 16:9
Режим частоты кадров : Постоянный
Частота кадров : 23,976 (24000/1001) кадра/сек
Стандарт вещания : Component
Цветовое пространство : YUV
Субдискретизация насыщенности : 4:2:0
Битовая глубина : 8 бит
Тип развёртки : Прогрессивная
Бит/(Пиксели*Кадры) : 0.233
Размер потока : 3,22 Гбайт (91%)
Default : Да
Forced : Нет
Цветовой диапазон : Limited
Основные цвета : BT.709
Характеристики трансфера : BT.709
Коэффициенты матрицы : BT.709

Аудио
Идентификатор : 2
Формат : AC-3
Формат/Информация : Audio Coding 3
Расширение режима : CM (complete main)
Параметр Endianness формата : Big
Идентификатор кодека : A_AC3
Продолжительность : 1 ч. 29 м.
Вид битрейта : Постоянный
Битрейт : 384 Кбит/сек
Каналы : 2 канала
Расположение каналов : Front: L R
Частота : 48,0 КГц
Частота кадров : 31,250 кадров/сек (1536 spf)
Метод сжатия : С потерями
Размер потока : 246 Мбайт (7%)
Default : Да
Forced : Нет

pb.wtf



Скачать Что нас ждёт через торрент https://a.radikal.ru/a09/1903/f5/8f57f15d51f6.jpg Скачать фильм Что нас ждёт через торрент бесплантно в хорошем качестве Описание: Две девушки отправляются в неожиданное путешествие, где с каждым километром между ними назревает агрессия, накаляя обстановку до ... 10 10 5
Торрент: Зарегистрирован [2019-03-19 16:49] · скачан: 18 раз
Статус: T временная
Размер: 3.53 GB
Как cкачать? Как скачать Что нас ждёт через торрент | qTorrent

% Раздел Тема Автор DL S | L
T Фильмы (мультфильмы) cо спонсором показа (Новинки AVI/MKV) [ 1.37 GB ] Что нас ждёт / What Lies Ahead [2019 WEB-DLRip] MVO ["Синема УС"] bober100 Скачать
1 | 0

28-11-2019 20:33  

Отключить всю рекламу на сайте


    Дорогой пользователь! Огромная просьба, поблагодарите релизера, оцените раздачу и оставьте свои комментарий, если Вы скачали Что нас ждёт через торрент бесплатно! Внесите свою лепту в развитие PiratBit!
    Комментировать посты могут только пользователи прошедшие не сложную регистрацию
    Показать сообщения:    

    Что нас ждёт через торрент
    Скачать бесплатно Что нас ждёт
    Что нас ждёт скачать торрент
    Что нас ждёт смотреть онлайн
    Cкачать фильм Что нас ждёт бесплатно
    Что нас ждёт скачать торрент в хорошем качестве
    Что нас ждёт смотреть онлайн бесплатно в хорошем качестве


    Вы не можете начинать темы
    Вы не можете отвечать на сообщения
    Вы не можете редактировать свои сообщения
    Вы не можете удалять свои сообщения
    Вы не можете голосовать в опросах
    Вы не можете прикреплять файлы к сообщениям
    Вы можете скачивать файлы