Ссылка на приватное зеркало всего за 1$. Внимание количество ограничено!!!

OK

1+1

iTunes

мы

OK

1

WEB-DLRip

Джокер

Пифагор

Ведьмак / The Witcher сериал

iTunes

ПШазам

ОК

Оно 2

iTunes

30
pack

Вам бонус

ВАЖНО

!!Акция!!

Alien_RageХит недели

RePack

Resident Evil 21

ИГРА 18+

pack

RePack

jed

RePack

fifa19

RePack

Assassins Creed: Odyssey

RePack

NEED FOR SPEED™ PAYBACK

4 сезон

9 сезон

Бесстыжие 9 сезон

Все сериалы

все сериалы на PB.wtf

RePack

FAR CRY 5
  

Тень / Ying (Чжан Имоу) [2018, драма, боевик, BDRip 1080p] DUB [Line] pb.wtf

Тень через торрент pb.wtf

Раздают: 1 [ 0 KB/s ]
Размер: 10.57 GB | Добавлен: 10 мес. назад | Торрент скачан:110 раз
Скачать  

19-03-2019 17:16 Тень Скачать торрент  

Тень / Ying Год выпуска: 2018
Страна: Китай, Гонконг
Жанр: драма, боевик
Продолжительность: 01:56:32
Перевод: Дублированный | Line
Субтитры: отсутствуют

Режиссер: Чжан Имоу

rating

В ролях:

Ден Чао, Сунь Ли, Чжэн Кай, Ван Цяньюань, Ван Цзинчунь, Ху Цзюнь, Гуань Сяотун, У Лэй, Фэн Бай

Описание:

Эпоха Троецарствия. Без ведома короля командующий Цзы Юй вызвал на дуэль генерала Яна, который захватил и удерживает город государства Пэй. Из-за своенравия командующий попадет в немилость правителя и лишается привилегий, но свою затею не оставляет. Только жена умирающего Юя знает, что вместо супруга уже целый год действует Тень, ещё с детства специально обученный двойник, а сам Юй сидит взаперти и строит коварные планы.

Качество: BDRip 1080p
Формат: MKV

Видео: h.264,12.5 Mb/s, 1920x804
Аудио#1: Русский (AC3, 2 ch, 448 Кбит/с)
скриншот  скриншот  скриншот  

Общее
Уникальный идентификатор : 174083707124820901166843871232518161255 (0x82F74D6C966338A0AEA7500622628367)
Полное имя : D:\Shadow.2018.D.BDRip.1O8Op.mkv
Формат : Matroska
Версия формата : Version 2
Размер файла : 10,6 Гбайт
Продолжительность : 1 ч. 56 м.
Режим общего битрейта : Переменный
Общий поток : 13,0 Мбит/сек
Дата кодирования : UTC 2019-03-19 15:08:00
Программа кодирования : mkvmerge v8.3.0 ('Over the Horizon') 64bit
Библиотека кодирования : libebml v1.3.1 + libmatroska v1.4.2

Видео
Идентификатор : 1
Формат : AVC
Формат/Информация : Advanced Video Codec
Профиль формата : High@L4.1
Параметр CABAC формата : Да
Параметр RefFrames формата : 4 кадра
Идентификатор кодека : V_MPEG4/ISO/AVC
Продолжительность : 1 ч. 56 м.
Вид битрейта : Переменный
Битрейт : 12,5 Мбит/сек
Максимальный битрейт : 14,0 Мбит/сек
Ширина : 1920 пикселей
Высота : 804 пикселя
Соотношение сторон : 2,40:1
Режим частоты кадров : Постоянный
Частота кадров : 23,976 (24000/1001) кадра/сек
Стандарт вещания : Component
Цветовое пространство : YUV
Субдискретизация насыщенности : 4:2:0
Битовая глубина : 8 бит
Тип развёртки : Прогрессивная
Бит/(Пиксели*Кадры) : 0.332
Размер потока : 10,00 Гбайт (95%)
Default : Да
Forced : Нет
Цветовой диапазон : Limited
Основные цвета : BT.709
Характеристики трансфера : BT.709
Коэффициенты матрицы : BT.709

Аудио
Идентификатор : 2
Формат : AC-3
Формат/Информация : Audio Coding 3
Расширение режима : CM (complete main)
Параметр Endianness формата : Big
Идентификатор кодека : A_AC3
Продолжительность : 1 ч. 56 м.
Вид битрейта : Постоянный
Битрейт : 448 Кбит/сек
Каналы : 2 канала
Расположение каналов : Front: L R
Частота : 48,0 КГц
Частота кадров : 31,250 кадров/сек (1536 spf)
Метод сжатия : С потерями
Размер потока : 373 Мбайт (3%)
Default : Да
Forced : Нет

pb.wtf



Скачать Тень через торрент https://c.radikal.ru/c10/1903/ac/1f841d55e923.jpg Скачать фильм Тень через торрент бесплантно в хорошем качестве Описание: Эпоха Троецарствия. Без ведома короля командующий Цзы Юй вызвал на дуэль генерала Яна, который захватил и удерживает город ... 8.5 10 6
Торрент: Зарегистрирован [2019-03-19 17:16] · скачан: 110 раз
Статус: # сомнительно
Размер: 10.57 GB
Как cкачать? Как скачать Тень через торрент | qTorrent

% Раздел Тема Автор DL S | L
Азиатские фильмы [ 4.18 GB ] Тень / Ying [2018 WEB-DL 1080p] MVO [HDrezka Studio] -Lexx- Скачать
1 | 0
Ultra HD (UHD: 2K, 4K, 8K) — видео сверхвысокой чёткости [ 50.41 GB ] Тень / Ying [2018 UHD BDRemux 2160p] + MVO [HDRezka Studio] sheker187 Скачать
1 | 0
Ultra HD (UHD: 2K, 4K, 8K) — видео сверхвысокой чёткости [ 16.09 GB ] Тень / Ying [2018 UHD BDRip 2160p] + MVO [HDRezka Studio] sheker187 Скачать
2 | 0
Азиатские фильмы [ 5.54 GB ] Тень / Ying / Shadow [2018 BDRip 720p] MVO [HDrezka Studio] + bober100 Скачать
2 | 0
Азиатские фильмы [ 8.4 GB ] Тень / Ying / Shadow [2018 BDRip 1080p] MVO [HDrezka Studio] + bober100 Скачать
1 | 0
Азиатские фильмы [ 1.41 GB ] Тень / Ying / Shadow [2018 BDRip] bober100 Скачать
3 | 0
Фильмы (Blu-ray, BD-Remux, HDDVD) [ 17.12 GB ] Тень / Ying / Shadow [2018 BD Remux 1080p] MVO [HDrezka Studio] + bober100 Скачать
1 | 0

28-11-2019 20:33  

Отключить всю рекламу на сайте

    Дорогой пользователь! Огромная просьба, поблагодарите релизера, оцените раздачу и оставьте свои комментарий, если Вы скачали Тень через торрент бесплатно! Внесите свою лепту в развитие PiratBit!
    Комментировать посты могут только пользователи прошедшие не сложную регистрацию
    Показать сообщения:    

    Тень через торрент
    Скачать бесплатно Тень
    Тень скачать торрент
    Тень смотреть онлайн
    Cкачать фильм Тень бесплатно
    Тень скачать торрент в хорошем качестве
    Тень смотреть онлайн бесплатно в хорошем качестве


    Вы не можете начинать темы
    Вы не можете отвечать на сообщения
    Вы не можете редактировать свои сообщения
    Вы не можете удалять свои сообщения
    Вы не можете голосовать в опросах
    Вы не можете прикреплять файлы к сообщениям
    Вы можете скачивать файлы