Ссылка на приватное зеркало всего за 1$. Внимание количество ограничено!!!

OK

1+1

iTunes

мы

OK

1

WEB-DLRip

Джокер

Пифагор

Ведьмак / The Witcher сериал

Лицензия

ПШазам

ОК

Оно 2

iTunes

30
pack

Вам бонус

ВАЖНО

!!Акция!!

Alien_RageХит недели

RePack

Resident Evil 21

ИГРА 18+

pack

RePack

jed

RePack

fifa19

RePack

Assassins Creed: Odyssey

RePack

NEED FOR SPEED™ PAYBACK

4 сезон

9 сезон

Бесстыжие 9 сезон

Все сериалы

все сериалы на PB.wtf

RePack

FAR CRY 5
  

Девочка / Girl (Лукас Донт) [2018, драма, BDRip 1080p] MVO [Line] pb.wtf

Девочка через торрент pb.wtf

Размер: 9.43 GB | Добавлен: 10 мес. назад | Торрент скачан:34 раза
Скачать  

19-03-2019 17:53 Девочка Скачать торрент  

Девочка / Girl Год выпуска: 2018
Страна: Бельгия, Нидерланды
Жанр: драма
Продолжительность: 01:46:21
Перевод: Профессиональный (многоголосый) | Line
Субтитры: отсутствуют

Режиссер: Лукас Донт

rating

В ролях:

Виктор Полстер, Арье Вортхальтер, Оливер Бодар, Тимен Говертс, Кателена Дамен, Валентин Дененс, Магали Элали, Алис де Брокевиль, Ален Хонорез, Крис Тис

Описание:

История пятнадцатилетней Лары, которая мечтает стать балериной. Балетная жизнь предстает во всей жестокости, однако для Лары она еще сложнее, чем для других. Не только потому, что она никогда не танцевала классику, не стояла на пуантах и не обладает природной растяжкой. Но и потому, что Лара родилась мальчиком по имени Виктор и в течение ближайших двух лет ей предстоят гормональная терапия и операция, которые должны это обстоятельство изменить.

Качество: BDRip 1080p
Формат: MKV

Видео: h.264, 12.2 Mb/s, 1800x1080
Аудио: Русский (AC3, 2 ch, 448 Кбит/с)
скриншот  скриншот  скриншот  

Общее
Уникальный идентификатор : 249009480613939420980912745244390122348 (0xBB557B449255AE18982BF7EBDA9CE36C)
Полное имя : D:\Girl.2018.Pof.BDRip.1O8Op.mkv
Формат : Matroska
Версия формата : Version 2
Размер файла : 9,43 Гбайт
Продолжительность : 1 ч. 46 м.
Режим общего битрейта : Переменный
Общий поток : 12,7 Мбит/сек
Дата кодирования : UTC 2019-03-19 05:26:44
Программа кодирования : mkvmerge v8.3.0 ('Over the Horizon') 64bit
Библиотека кодирования : libebml v1.3.1 + libmatroska v1.4.2

Видео
Идентификатор : 1
Формат : AVC
Формат/Информация : Advanced Video Codec
Профиль формата : High@L4.1
Параметр CABAC формата : Да
Параметр RefFrames формата : 4 кадра
Идентификатор кодека : V_MPEG4/ISO/AVC
Продолжительность : 1 ч. 46 м.
Вид битрейта : Переменный
Битрейт : 12,2 Мбит/сек
Максимальный битрейт : 14,0 Мбит/сек
Ширина : 1800 пикселей
Высота : 1080 пикселей
Соотношение сторон : 5:3
Режим частоты кадров : Постоянный
Частота кадров : 23,976 (24000/1001) кадра/сек
Стандарт вещания : Component
Цветовое пространство : YUV
Субдискретизация насыщенности : 4:2:0
Битовая глубина : 8 бит
Тип развёртки : Прогрессивная
Бит/(Пиксели*Кадры) : 0.257
Размер потока : 8,91 Гбайт (94%)
Default : Да
Forced : Нет
Цветовой диапазон : Limited
Основные цвета : BT.709
Характеристики трансфера : BT.709
Коэффициенты матрицы : BT.709

Аудио
Идентификатор : 2
Формат : AC-3
Формат/Информация : Audio Coding 3
Расширение режима : CM (complete main)
Параметр Endianness формата : Big
Идентификатор кодека : A_AC3
Продолжительность : 1 ч. 46 м.
Вид битрейта : Постоянный
Битрейт : 448 Кбит/сек
Каналы : 2 канала
Расположение каналов : Front: L R
Частота : 48,0 КГц
Частота кадров : 31,250 кадров/сек (1536 spf)
Метод сжатия : С потерями
Размер потока : 341 Мбайт (4%)
Default : Да
Forced : Нет

pb.wtf



Скачать Девочка через торрент https://c.radikal.ru/c40/1903/b4/2a4ea145a77e.jpg Скачать фильм Девочка через торрент бесплантно в хорошем качестве Описание: История пятнадцатилетней Лары, которая мечтает стать балериной. Балетная жизнь предстает во всей жестокости, однако для Лары она ... 7.8 10 4
Торрент: Зарегистрирован [2019-03-19 17:53] · скачан: 34 раз
Статус: # сомнительно
Размер: 9.43 GB
Как cкачать? Как скачать Девочка через торрент | qTorrent

% Раздел Тема Автор DL S | L
Порно фильмы с русским переводом [ 1.37 GB ] Mafia girl / Девочка мафии [2007 All Sex Anal Oral DP Toys DVDRip] [RU первод] Majestro Скачать
1 | 2
Порно фильмы без сюжета [ 1.36 GB ] The Girls Of Red Light District: Courtney Simpson / Девочки из района Красных Фонарей: Кортни Симпсон [2010 Anal All Sex Movies Interracial Black Threesomes DVDRip] Release Date Mar 31 2010 Majestro Скачать
1 | 1
Порно фильмы без сюжета [ 1.37 GB ] My Girl: Cindy / Моя Девочка: Синди [2010 All Sex Lesby DVDRip] Joup Скачать
1 | 0
Нетрадиционное порно [ 697 MB ] Приятные Девочки забрызганные и оттраханные / Dralle Girls vollgespritzt & durchgefickt [2008 All Sex Anal Oral Bukkake DVDRip] Оld Скачать
1 | 0
Паки русских роликов [ 17.51 GB ] Real Drunken Girls Реально пьяная Девочка или Пьяные Дырки [группа пьяный секс CamRip] ЧуМаДаН Скачать
1 | 0
Порно фильмы без сюжета [ 1.37 GB ] Bus Stop Girls / Девочки с Автобусной Остановки [2010 Schoolgirls Anal All Sex DVDRip] Shmel Скачать
1 | 0
Паки полных порно фильмов [ 7.06 GB ] Bad Girls 1-5 / Плохие Девочки 1-5 [2009-2010 г HD - Shot In High Def Feature DVDRip HDRip BDRip] smaster Скачать
1 | 0

28-11-2019 20:33  

Отключить всю рекламу на сайте

19-03-2019 18:05 Девочка Скачать торрент  

Блин) И тут они. Одни пираласты)pb.wtf



19-03-2019 19:04 Девочка Скачать торрент  

А рейтинг прям Зашкаливает!!!!!Стоит ли после такого описания смотреть фильм)???pb.wtf



19-03-2019 22:20 Девочка Скачать торрент  

Mjxajl писал(а):

А рейтинг прям Зашкаливает!!!!!Стоит ли после такого описания смотреть фильм)???

Однозначно не стоит !!!
Гейропа она такая, ЗАПОЛОНИЛИ.pb.wtf



20-03-2019 10:36 Девочка Скачать торрент  

Demon83666 писал(а):

Блин) И тут они. Одни пираласты)

какие же тут "пираласты"? тут трансмутанты настоящие! педрилы хоть писюны себе не отрезают, а эти... больные ублюдки, таких надо изолировать от нормального обществаpb.wtf



20-03-2019 11:26 Девочка Скачать торрент  

Девочкоpb.wtf



    Дорогой пользователь! Огромная просьба, поблагодарите релизера, оцените раздачу и оставьте свои комментарий, если Вы скачали Девочка через торрент бесплатно! Внесите свою лепту в развитие PiratBit!
    Комментировать посты могут только пользователи прошедшие не сложную регистрацию
    Показать сообщения:    

    Девочка через торрент
    Скачать бесплатно Девочка
    Девочка скачать торрент
    Девочка смотреть онлайн
    Cкачать фильм Девочка бесплатно
    Девочка скачать торрент в хорошем качестве
    Девочка смотреть онлайн бесплатно в хорошем качестве


    Вы не можете начинать темы
    Вы не можете отвечать на сообщения
    Вы не можете редактировать свои сообщения
    Вы не можете удалять свои сообщения
    Вы не можете голосовать в опросах
    Вы не можете прикреплять файлы к сообщениям
    Вы можете скачивать файлы