Ссылка на приватное зеркало всего за 1$. Внимание количество ограничено!!!

iTunes

1+1

iTunes

мы

WEB-DL

1

iTunes

Чернобыль

iTunes

Ральф против интернета

Лицензия

ПШазам

Лицензия

Оно 2

Лицензия

30
pack

Вам бонус

ВАЖНО

!!Акция!!

Alien_RageХит недели

RePack

Resident Evil 21

ИГРА 18+

pack

RePack

jed

!!Акция!!

Alien_Rage

RePack

fifa19

RePack

Assassins Creed: Odyssey

RePack

NEED FOR SPEED™ PAYBACK

3 сезон

9 сезон

Бесстыжие 9 сезон

Все сериалы

все сериалы на PB.wtf

RePack

FAR CRY 5
Ребята, катастрофически не хватает 1900р. для оплаты серверов за Октябрь (всвязи с блокировками трафик упал в 3 раза), 1-2р., выручайте.
  

Дикая жизнь / Wildlife (Пол Дано) [2018, драма, BDRip-AVC] DUB [iTunes] pb.wtf

Дикая жизнь через торрент pb.wtf

Раздают: 1 [ 0 KB/s ]
Размер: 2.23 GB | Добавлен: 8 мес. назад | Торрент скачан:113 раз
Скачать  

19-03-2019 18:38 Дикая жизнь Скачать торрент  

Дикая жизнь / Wildlife Год выпуска: 2018
Страна: США
Жанр: драма
Продолжительность: 01:44:54
Перевод: Дублированный | iTunes
Субтитры: Русские (полные), Английские (полные, SDH)

Режиссер: Пол Дано

rating

В ролях:

Джейк Джилленхол, Кэри Маллиган, Эд Оксенбульд, Билл Кэмп, Зои Маргарет Коллетти, Кейт Джонс, Лекси Анастэйша, Молли Миллиган, ДжейАр Хэтчетт, Дэррил Кокс

Описание:

Сюжет основан на одноимённом романе 1990 года от американского писателя и лауреата Пулитцеровской премии Ричарда Форда. В центре внимания находится о непростых отношениях семьи Брисон, описанных с точки зрения 16-летнего Джо (Эд Эксенбульд). Однажды парень случайно узнаёт, что его мать Жанетт (Кэри Маллиган) завела роман с посторонним мужчиной, в то время как его отец Джерри (Джейк Джилленхол) теряет работу и борется с лесными пожарами.

Качество: BDRip-AVC
Формат: MKV

Видео: 1024x554 (1.85:1), 23,976 fps, x264 ~2 214 kbps avg, 0.163 bit/pixel
Аудио#1: 48 kHz, AC3 Dolby Digital Plus, 3/2 (L,C,R,l,r) + LFE ch, ~384.00 kbps avg | RUS (iTunes)
Аудио#2: 48 kHz, AC3 Dolby Digital Plus, 3/2 (L,C,R,l,r) + LFE ch, ~448.00 kbps avg | ENG
скриншот  скриншот  скриншот  скриншот  скриншот  

Общее
Уникальный идентификатор : 259717808706517543717375052280968441751 (0xC363D49ADA133EFE9C1E1758F8C6EF97)
Полное имя : F:OlLanDGroupWildlife.2018.BDRip(AVC).OllanDGroup.mkv
Формат : Matroska
Версия формата : Version 4 / Version 2
Размер файла : 2,23 Гбайт
Продолжительность : 1 ч. 44 м.
Общий поток : 3048 Кбит/сек
Название фильма : Wildlife.2018 #TorpedoUK#
Дата кодирования : UTC 2019-03-15 08:09:39
Программа кодирования : mkvmerge v29.0.0 ('Like It Or Not') 64-bit
Библиотека кодирования : libebml v1.3.6 + libmatroska v1.4.9

Видео
Идентификатор : 1
Формат : AVC
Формат/Информация : Advanced Video Codec
Профиль формата : High@L4.1
Параметр CABAC формата : Да
Параметр ReFrames формата : 10 кадров
Идентификатор кодека : V_MPEG4/ISO/AVC
Продолжительность : 1 ч. 44 м.
Битрейт : 2214 Кбит/сек
Ширина : 1024 пикселя
Высота : 554 пикселя
Соотношение сторон : 1,85:1
Режим частоты кадров : Постоянный
Частота кадров : 23,976 (24000/1001) кадра/сек
Цветовое пространство : YUV
Субдискретизация насыщенности : 4:2:0
Битовая глубина : 8 бит
Тип развёртки : Прогрессивная
Бит/(Пиксели*Кадры) : 0.163
Размер потока : 1,62 Гбайт (73%)
Библиотека кодирования : x264 core 146 r2538 121396c
Настройки программы : cabac=1 / ref=10 / deblock=1:-3:-3 / analyse=0x3:0x113 / me=umh / subme=11 / psy=1 / psy_rd=0.98:0.04 / mixed_ref=1 / me_range=48 / chroma_me=1 / trellis=2 / 8x8dct=1 / cqm=0 / deadzone=21,11 / fast_pskip=1 / chroma_qp_offset=-3 / threads=6 / lookahead_threads=1 / sliced_threads=0 / nr=0 / decimate=1 / interlaced=0 / bluray_compat=0 / constrained_intra=0 / bframes=11 / b_pyramid=2 / b_adapt=2 / b_bias=0 / direct=3 / weightb=1 / open_gop=0 / weightp=2 / keyint=240 / keyint_min=23 / scenecut=40 / intra_refresh=0 / rc_lookahead=40 / rc=2pass / mbtree=0 / bitrate=2214 / ratetol=1.0 / qcomp=0.60 / qpmin=0 / qpmax=69 / qpstep=4 / cplxblur=20.0 / qblur=0.5 / vbv_maxrate=50000 / vbv_bufsize=62500 / nal_hrd=none / filler=0 / ip_ratio=1.40 / pb_ratio=1.30 / aq=1:1.00
Язык : English
Default : Да
Forced : Нет

Аудио #1
Идентификатор : 2
Формат : AC-3
Формат/Информация : Audio Coding 3
Расширение режима : CM (complete main)
Параметр Endianness формата : Big
Идентификатор кодека : A_AC3
Продолжительность : 1 ч. 44 м.
Вид битрейта : Постоянный
Битрейт : 384 Кбит/сек
Каналы : 6 каналов
Расположение каналов : Front: L C R, Side: L R, LFE
Частота : 48,0 КГц
Частота кадров : 31,250 кадров/сек (1536 spf)
Битовая глубина : 16 бит
Метод сжатия : С потерями
Размер потока : 288 Мбайт (13%)
Заголовок : DUB [iTunes]
Язык : Russian
Default : Да
Forced : Нет

Аудио #2
Идентификатор : 3
Формат : AC-3
Формат/Информация : Audio Coding 3
Расширение режима : CM (complete main)
Параметр Endianness формата : Big
Идентификатор кодека : A_AC3
Продолжительность : 1 ч. 44 м.
Вид битрейта : Постоянный
Битрейт : 448 Кбит/сек
Каналы : 6 каналов
Расположение каналов : Front: L C R, Side: L R, LFE
Частота : 48,0 КГц
Частота кадров : 31,250 кадров/сек (1536 spf)
Битовая глубина : 16 бит
Метод сжатия : С потерями
Размер потока : 336 Мбайт (15%)
Заголовок : [Original]
Язык : English
Default : Нет
Forced : Нет

Текст #1
Идентификатор : 4
Формат : UTF-8
Идентификатор кодека : S_TEXT/UTF8
Идентификатор кодека/Информация : UTF-8 Plain Text
Продолжительность : 1 ч. 40 м.
Битрейт : 71 бит/сек
Count of elements : 1076
Размер потока : 52,8 Кбайт (0%)
Заголовок : Full [Focs]
Язык : Russian
Default : Нет
Forced : Нет

Текст #2
Идентификатор : 5
Формат : UTF-8
Идентификатор кодека : S_TEXT/UTF8
Идентификатор кодека/Информация : UTF-8 Plain Text
Продолжительность : 1 ч. 40 м.
Битрейт : 45 бит/сек
Count of elements : 1107
Размер потока : 33,9 Кбайт (0%)
Заголовок : Full
Язык : English
Default : Нет
Forced : Нет

Текст #3
Идентификатор : 6
Формат : UTF-8
Идентификатор кодека : S_TEXT/UTF8
Идентификатор кодека/Информация : UTF-8 Plain Text
Продолжительность : 1 ч. 41 м.
Битрейт : 50 бит/сек
Count of elements : 1284
Размер потока : 37,6 Кбайт (0%)
Заголовок : SDH
Язык : English
Default : Нет
Forced : Нет

Меню
00:00:00.000 : en:Глава 01
00:07:57.018 : en:Глава 02
00:16:44.545 : en:Глава 03
00:25:02.876 : en:Глава 04
00:32:57.809 : en:Глава 05
00:39:35.957 : en:Глава 06
00:52:35.652 : en:Глава 07
01:09:14.233 : en:Глава 08
01:15:24.687 : en:Глава 09
01:23:08.442 : en:Глава 10
01:34:11.813 : en:Глава 11
01:41:06.060 : en:Глава 12

pb.wtf



Скачать Дикая жизнь через торрент http://img16.lostpic.net/2019/03/15/ecf9ca1a4b871d0028292a5c2ad5c170.jpg Скачать фильм Дикая жизнь через торрент бесплантно в хорошем качестве Описание: Сюжет основан на одноимённом романе 1990 года от американского писателя и лауреата Пулитцеровской премии Ричарда Форда. В центре ... 8.2 10 5
Торрент: Зарегистрирован [2019-03-19 18:38] · скачан: 113 раз
Статус: √ проверено
Размер: 2.23 GB
Как cкачать? Как скачать Дикая жизнь через торрент | qTorrent

% Раздел Тема Автор DL S | L
Фильмы 2018 [DVDrip, WEB-DLRip, HDrip] (DUB, MVO) [ 1.41 GB ] Дикая жизнь / Wildlife [2018 BDRip] bober100 Скачать
3 | 0
Фильмы [HD 720p, 1080p] (Хороший звук DUB, MVO) [ 8.08 GB ] Дикая жизнь / Wildlife [2018 BDRip 1080p] bober100 Скачать
1 | 0
Фильмы (WEB-DL 720p, 1080p) [ 4.32 GB ] Дикая жизнь / Wildlife [2018 WEB-DL 1080p] bober100 Скачать
3 | 0
Фильмы без перевода [ 1.42 GB ] Дикая жизнь / Wildlife [2018 WEB-DLRip] [Sub Rus] killermax2013 Скачать
1 | 0

28-11-2019 20:33  

Отключить всю рекламу на сайте

    Дорогой пользователь! Огромная просьба, поблагодарите релизера, оцените раздачу и оставьте свои комментарий, если Вы скачали Дикая жизнь через торрент бесплатно! Внесите свою лепту в развитие PiratBit!
    Комментировать посты могут только пользователи прошедшие не сложную регистрацию
    Показать сообщения:    

    Дикая жизнь через торрент
    Скачать бесплатно Дикая жизнь
    Дикая жизнь скачать торрент
    Дикая жизнь смотреть онлайн
    Cкачать фильм Дикая жизнь бесплатно
    Дикая жизнь скачать торрент в хорошем качестве
    Дикая жизнь смотреть онлайн бесплатно в хорошем качестве


    Вы не можете начинать темы
    Вы не можете отвечать на сообщения
    Вы не можете редактировать свои сообщения
    Вы не можете удалять свои сообщения
    Вы не можете голосовать в опросах
    Вы не можете прикреплять файлы к сообщениям
    Вы можете скачивать файлы