Достать ножи: Стеклянная луковица

MVO

Добыча

Дубляж

Уэнсдэй

1 сезон

Тор

Дубляж

13 клиническая

1 сезон

Жестокая ночь

MVO

Одни из нас

1 сезон

Deluxe

pack

Рекомендуем

30

Пиратка

ВАЖНО

ВАЖНО

Ghostwire

Пиратка

jed

RePack

nioh2

RePack

RDR2

RePack

NEED FOR SPEED™ PAYBACK

RePack

скачать торрент

Кинопоиск HD

Острые козырьки 6 сезон

6 сезон

FAR CRY 6

RePack

скачать торрент

Лицензия

скачать торрент

MVO

1

1 сезон

скачать торрент

1 сезон

скачать торрент

Лицензия

  

Фантастические твари: Преступления Грин-де-Вальда / Fantastic Beasts: The Crimes of Grindelwald (Дэвид Йейтс) [2018 г., фэнтези, приключения, семейный, BDRip 1080p, Дубляж Лицензия] Анаглиф (Дюбуа)

Фантастические твари: Преступления Грин-де-Вальда через торрент pb.wtf

Размер: 6.38 GB | Добавлен: 3 года 10 мес. назад | Торрент скачан:39 раз
Смотреть онлайн | Скачать | Поддержите нас   

19-03-2019 18:49 Фантастические твари: Преступления Грин-де-Вальда Скачать торрент  

Фантастические твари: Преступления Грин-де-Вальда / Fantastic Beasts: The Crimes of Grindelwald
Год выпуска: 2018
Страна: Великобритания, США
Жанр: фэнтези, приключения, семейный
Продолжительность: 02:13:50
Перевод: Дубляж Лицензия
Субтитры: Русские, украинские, английские

Режиссер: Дэвид Йейтс

Бюджет: $200 000 000
Премьера в мире: 8 ноября 2018 (15 ноября 2018)



В ролях: Эдди Редмэйн, Джонни Депп, Кэтрин Уотерстон, Элисон Судол, Дэн Фоглер, Эзра Миллер, Джуд Лоу, Кевин Гатри, Кармен Эджого, Вольф Рот, Зои Кравиц, Каллум Тернер, Дерек Ридделл, Корнелл Джон, Клаудия Ким, Ингвар Эггерт Сигюрдссон, Поппи Корби-Туч, Эндрю Тернер, Дэвид Сакурай, Клавдий Питерс

Описание: Могущественный тёмный волшебник Геллерт Грин-де-Вальд пойман в Штатах, но не собирается молча сидеть в темнице и устраивает грандиозный побег. Теперь ничто не помешает ему добиться своей цели — установить превосходство волшебников над всеми немагическими существами на планете. Чтобы сорвать планы Грин-де-Вальда, Альбус Дамблдор обращается к своему бывшему студенту Ньюту Саламандеру, который соглашается помочь, не подозревая, какая опасность ему грозит. В раскалывающемся на части волшебном мире любовь и верность проверяются на прочность, а конфликт разделяет даже настоящих друзей и членов семей.

Доп. информация: Формат 3D: Анаглиф (Дюбуа)



Качество: BDRip 1080p
Формат: MKV
Видео кодек: H.264
Аудио кодек: AC3
Видео: x264, 1920 x 1080 (16:9), 5412 kbps, 23,976 fps, ( 0.109bpp)
Аудио#1: Русский / AC3 / 48 KHz / 5.1 ch / 448 Kbps (Дубляж - BD CEE)
Аудио#2: Украинский / AC3 / 48 KHz / 2 ch / 192 Kbps (Дубляж - iTunes)
Аудио#3: Английский / AC3 / 48 KHz / 5.1 ch / 640 Kbps (Original - BD 3D Eur)


скриншот   скриншот   скриншот   скриншот   скриншот  
x264 [info]: profile High, level 4.1
x264 [info]: frame I:1275 Avg QP:11.08 size:189120
x264 [info]: frame P:42618 Avg QP:14.45 size: 60934
x264 [info]: frame B:148637 Avg QP:16.95 size: 18353
x264 [info]: consecutive B-frames: 2.6% 2.8% 8.5% 20.4% 11.5% 41.1% 4.3% 7.5% 1.2%


Общее
Уникальный идентификатор : 201842569722071152720881477700888119525 (0x97D97704359C0356809B4BD9A61D48E5)
Полное имя : D:\FantasticBeasts2(2018)3D.(Anaglyph_Dubois).mkv
Формат : Matroska
Версия формата : Version 4 / Version 2
Размер файла : 6,38 Гбайт
Продолжительность : 2 ч. 13 м.
Общий поток : 6828 Кбит/сек
Название фильма : Фантастические твари: Преступления Грин-де-Вальда / Fantastic Beasts: The Crimes of Grindelwald (2018) in 3D(Anaglyph_Dubois)
Дата кодирования : UTC 2019-03-19 17:46:43
Программа кодирования : mkvmerge v12.0.0 ('Trust / Lust') 64bit
Библиотека кодирования : libebml v1.3.4 + libmatroska v1.4.5
DURATION : 02:04:42.476000000
NUMBER_OF_FRAMES : 1588
NUMBER_OF_BYTES : 43790
_STATISTICS_WRITING_APP : mkvmerge v12.0.0 ('Trust / Lust') 64bit
_STATISTICS_WRITING_DATE_UTC : 2019-03-19 17:46:43
_STATISTICS_TAGS : BPS DURATION NUMBER_OF_FRAMES NUMBER_OF_BYTES

Видео
Идентификатор : 1
Формат : AVC
Формат/Информация : Advanced Video Codec
Профиль формата : [email protected]
Параметр CABAC формата : Да
Параметр ReFrames формата : 4 кадра
Идентификатор кодека : V_MPEG4/ISO/AVC
Продолжительность : 2 ч. 13 м.
Битрейт : 5412 Кбит/сек
Ширина : 1920 пикселей
Высота : 1080 пикселей
Соотношение сторон : 16:9
Режим частоты кадров : Постоянный
Частота кадров : 23,976 кадра/сек
Цветовое пространство : YUV
Субдискретизация насыщенности : 4:2:0
Битовая глубина : 8 бит
Тип развёртки : Прогрессивная
Бит/(Пиксели*Кадры) : 0.109
Размер потока : 5,06 Гбайт (79%)
Заголовок : slaventi-69 ( R.G. HD-Films ) 3Д (Anaglyph_Dubois)
Библиотека кодирования : x264 core 130 r2273 b3065e6
Настройки программы : cabac=1 / ref=4 / deblock=1:-1:-1 / analyse=0x3:0x133 / me=umh / subme=9 / psy=1 / psy_rd=1.00:0.10 / mixed_ref=1 / me_range=26 / chroma_me=1 / trellis=2 / 8x8dct=1 / cqm=0 / deadzone=21,11 / fast_pskip=0 / chroma_qp_offset=-3 / threads=10 / lookahead_threads=3 / sliced_threads=0 / nr=0 / decimate=1 / interlaced=0 / bluray_compat=0 / constrained_intra=0 / bframes=8 / b_pyramid=2 / b_adapt=2 / b_bias=0 / direct=3 / weightb=1 / open_gop=0 / weightp=2 / keyint=250 / keyint_min=23 / scenecut=40 / intra_refresh=0 / rc_lookahead=50 / rc=crf / mbtree=1 / crf=18.0 / qcomp=0.60 / qpmin=0 / qpmax=69 / qpstep=4 / ip_ratio=1.40 / aq=1:1.00
Язык : English
Default : Да
Forced : Нет
DURATION : 02:13:50.099000000
NUMBER_OF_FRAMES : 192530
NUMBER_OF_BYTES : 5566016088
_STATISTICS_WRITING_APP : mkvmerge v12.0.0 ('Trust / Lust') 64bit
_STATISTICS_WRITING_DATE_UTC : 2019-03-19 17:46:43
_STATISTICS_TAGS : BPS DURATION NUMBER_OF_FRAMES NUMBER_OF_BYTES

Аудио #1
Идентификатор : 2
Формат : AC-3
Формат/Информация : Audio Coding 3
Расширение режима : CM (complete main)
Параметр Endianness формата : Big
Идентификатор кодека : A_AC3
Продолжительность : 2 ч. 13 м.
Вид битрейта : Постоянный
Битрейт : 448 Кбит/сек
Каналы : 6 каналов
Расположение каналов : Front: L C R, Side: L R, LFE
Частота : 48,0 КГц
Битовая глубина : 16 бит
Метод сжатия : С потерями
Размер потока : 429 Мбайт (7%)
Заголовок : Дубляж - BD 3D Eur
Язык : Russian
Default : Да
Forced : Нет

Аудио #2
Идентификатор : 3
Формат : AC-3
Формат/Информация : Audio Coding 3
Расширение режима : CM (complete main)
Параметр Endianness формата : Big
Идентификатор кодека : A_AC3
Продолжительность : 2 ч. 13 м.
Вид битрейта : Постоянный
Битрейт : 192 Кбит/сек
Каналы : 2 канала
Расположение каналов : Front: L R
Частота : 48,0 КГц
Битовая глубина : 16 бит
Метод сжатия : С потерями
Размер потока : 184 Мбайт (3%)
Заголовок : Дубляж - iTunes
Язык : Ukrainian
Default : Нет
Forced : Нет

Аудио #3
Идентификатор : 4
Формат : AC-3
Формат/Информация : Audio Coding 3
Расширение режима : CM (complete main)
Параметр Endianness формата : Big
Идентификатор кодека : A_AC3
Продолжительность : 2 ч. 13 м.
Вид битрейта : Постоянный
Битрейт : 640 Кбит/сек
Каналы : 6 каналов
Расположение каналов : Front: L C R, Side: L R, LFE
Частота : 48,0 КГц
Битовая глубина : 16 бит
Метод сжатия : С потерями
Размер потока : 613 Мбайт (9%)
Заголовок : Original - BD 3D Eur
Язык : English
Default : Нет
Forced : Нет

Текст #1
Идентификатор : 5
Формат : UTF-8
Идентификатор кодека : S_TEXT/UTF8
Идентификатор кодека/Информация : UTF-8 Plain Text
Заголовок : Форсированные
Язык : Russian
Default : Да
Forced : Нет

Текст #2
Идентификатор : 6
Формат : UTF-8
Идентификатор кодека : S_TEXT/UTF8
Идентификатор кодека/Информация : UTF-8 Plain Text
Заголовок : Полные
Язык : Russian
Default : Нет
Forced : Нет

Текст #3
Идентификатор : 7
Формат : UTF-8
Идентификатор кодека : S_TEXT/UTF8
Идентификатор кодека/Информация : UTF-8 Plain Text
Заголовок : Форсированные
Язык : Ukrainian
Default : Нет
Forced : Нет

Текст #4
Идентификатор : 8
Формат : UTF-8
Идентификатор кодека : S_TEXT/UTF8
Идентификатор кодека/Информация : UTF-8 Plain Text
Заголовок : Full
Язык : English
Default : Нет
Forced : Нет

Текст #5
Идентификатор : 9
Формат : UTF-8
Идентификатор кодека : S_TEXT/UTF8
Идентификатор кодека/Информация : UTF-8 Plain Text
Заголовок : SDH
Язык : English
Default : Нет
Forced : Нет

Меню
00:00:00.000 : :1
00:07:15.310 : :2
00:21:39.381 : :3
00:32:56.850 : :4
00:41:41.124 : :5
00:50:26.190 : :6
00:58:21.540 : :7
01:12:02.860 : :8
01:20:23.610 : :9
01:34:50.059 : :10
01:43:08.557 : :11
01:51:42.237 : :12
02:00:31.641 : :13




Скачать Фантастические твари: Преступления Грин-де-Вальда через торрент https://c.radikal.ru/c37/1903/6c/64ee40ab4807.png Скачать, смотреть онлайн Фантастические твари: Преступления Грин-де-Вальда бесплантно в хорошем качестве Описание: Могущественный тёмный волшебник Геллерт Грин-де-Вальд пойман в Штатах, но не собирается молча сидеть в темнице и устраивает ... 10 10 1
Торрент: Зарегистрирован [2019-03-19 18:49] · скачан: 39 раз
Статус: √ проверено
Размер: 6.38 GB
Как cкачать? Как скачать Фантастические твари: Преступления Грин-де-Вальда через торрент | UTorrent

% Раздел Тема Автор DL S | L
Фильмы (HD 720p, 1080p) (48-60 fps) [ 5.51 GB ] Фантастические твари: Преступления Грин-де-Вальда / Fantastic Beasts: The Crimes of Grindelwald | Дубляж BD CEE | DLRip 720p / 60 FPS BD CEE slaventi-69 Скачать
3 | 0
Фильмы (WEB-DL 720p, 1080p) [ 5.28 GB ] Фантастические твари: Преступления Грин-де-Вальда / Fantastic Beasts: The Crimes of Grindelwald | iTunes | 1080p bober100 Скачать
1 | 0
3D Фильмы [ 18.55 GB ] Фантастические твари: Преступления Грин-де-Вальда в 3Д / Fantastic Beasts: The Crimes of Grindelwald 3D | Лицензия | 1080p serega768 Скачать
1 | 0
Фильмы [HD 720p, 1080p] (Хороший звук DUB, MVO) [ 10.34 GB ] Фантастические твари: Преступления Грин-де-Вальда / Fantastic Beasts: The Crimes of Grindelwald | Лицензия | 1080p bober100 Скачать
2 | 0
3D Фильмы [ 11.48 GB ] Фантастические твари: Преступления Грин-де-Вальда в 3Д / Fantastic Beasts: The Crimes of Grindelwald 3D | Лицензия | 1080p sheker187 Скачать
1 | 0
Фильмы (Blu-ray, BD-Remux, HDDVD) [ 38.42 GB ] Фантастические твари: Преступления Грин-де-Вальда / Fantastic Beasts: The Crimes of Grindelwald | Лицензия | BD Remux 1080p bober100 Скачать
1 | 0
Фильмы 2018 [DVDrip, WEB-DLRip, HDrip] (DUB, MVO) [ 2.68 GB ] Фантастические твари: Преступления Грин-де-Вальда / Fantastic Beasts: The Crimes of Grindelwald | Лицензия | BDRip-AVC bober100 Скачать
1 | 0

28-11-2019 20:33  


Отключить вcю реклaмy на сайте, в т.ч. и в плеере онлайн просмотра!

    Дорогой пользователь! Огромная просьба, поблагодарите релизера, оцените раздачу и оставьте свои комментарий, если Вы скачали Фантастические твари: Преступления Грин-де-Вальда через торрент бесплатно!!
    Комментировать посты могут только пользователи прошедшие не сложную регистрацию
    Показать сообщения:    


    Фантастические твари: Преступления Грин-де-Вальда через торрент
    Скачать бесплатно Фантастические твари: Преступления Грин-де-Вальда
    Фантастические твари: Преступления Грин-де-Вальда скачать торрент
    Фантастические твари: Преступления Грин-де-Вальда смотреть онлайн
    Cкачать фильм Фантастические твари: Преступления Грин-де-Вальда бесплатно
    Фантастические твари: Преступления Грин-де-Вальда скачать торрент в хорошем качестве
    Фантастические твари: Преступления Грин-де-Вальда смотреть онлайн бесплатно в хорошем качестве
    Вы не можете начинать темы
    Вы не можете отвечать на сообщения
    Вы не можете редактировать свои сообщения
    Вы не можете удалять свои сообщения
    Вы не можете голосовать в опросах
    Вы не можете прикреплять файлы к сообщениям
    Вы можете скачивать файлы
    Фантастические твари: Преступления Грин-де-Вальда / Fantastic Beasts: The Crimes of Grindelwald [2018 г., фэнтези, приключения, семейный, BDRip 1080p, Дубляж Лицензия] Анаглиф смотреть онлайн, скачать торрент picoco.icu