Ссылка на приватное зеркало нашего сайта всего за 1$. Внимание количество ограничено!!!

2 сезон

iTunes

1 сезон

1

2 сезон

2 сезон

iTunes

1 сезон

RePack

30

Ultimate

ВАЖНО

ИГРА 18+

pack

RePack

MK11
pack

Забери бонус

RePack

jed

!!Акция!!

Alien_Rage

RePack

fifa19

RePack

Assassins Creed: Odyssey

RePack

NEED FOR SPEED™ PAYBACK

4 сезон

9 сезон

Бесстыжие 9 сезон

Все сериалы

все сериалы на PB.wtf

RePack

FAR CRY 5
  

Обратная тяга / Backdraft (Рон Ховард) [1991, Боевик, триллер, драма, криминал, детектив, WEB-DL 1080p] [Open Matte] 3xAVO+4xMVO (rus, ukr) pb.wtf

Обратная тяга через торрент pb.wtf

Размер: 16.47 GB | Добавлен: 1 год 8 мес. назад | Торрент скачан:40 раз
Скачать  

19-03-2019 20:21 Обратная тяга Скачать торрент  

Обратная тяга / Backdraft
Год выпуска: 1991
Страна: США
Жанр: Боевик, триллер, драма, криминал, детектив
Продолжительность: 02:17:16
Перевод: Профессиональный (многоголосый), авторский (одноголосый, закадровый)
Субтитры: Русские, английские (full, SDH)

Режиссер: Рон Ховард

rating

В ролях:

Курт Рассел, Уильям Болдуин, Роберт Де Ниро, Дональд Сазерленд, Дженнифер Джейсон Ли, Скотт Гленн, Ребекка Де Морнэй, Джейсон Гедрик, Дж.Т. Уолш, Энтони Мокус ст.

Описание:

«Обратная тяга» — это термин профессиональных пожарных. В результате «обратной тяги» погибает отец Брайана и Стивена. В отличие от Стивена, Брайан отказывается от карьеры пожарного, но судьба распоряжается так, что братья оказываются в одном отряде. Отношения между ними натянуты. Вскоре младший покидает команду, чтобы вместе со следователем поймать поджигателя-маньяка…

Качество: WEB-DL 1080p | Open Matte
Формат: MKV

Видео: AVC/H.264, 1920x1080, (16:9), ~10 Mbps, 23.976 fps
Аудио#1: AC3, 6 ch, 448 kbps - Русский (MVO, Киномания/С.Р.И)
Аудио#2: AC3, 6 ch, 384 kbps - Русский (MVO, R5)
Аудио#3: AC3, 2 ch, 192 kbps - Русский (MVO, Первый канал)
Аудио#4: AC3, 2 ch, 192 kbps - Русский (MVO, Премьер Видео фильм)
Аудио#5: DTS, 6 ch, 1510 kbps - Русский (AVO, А. Гаврилов)
Аудио#6: DTS, 6 ch, 1510 kbps - Русский (AVO, Ю. Живов)
Аудио#7: DTS, 6 ch, 1510 kbps - Русский (AVO, Е. Гаевский)
Аудио#8: AC3, 2 ch, 192 kbps - Украинский (MVO, "1+1")
Аудио#9: DTS, 6 ch, 1510 kbps - Английский
Исходник видео WEB-DL Amazon STARZ (периодически появляется логотип)
Open Matte версия фильма имеет большее наполнение кадра, по сравнению с блюрэй.
За помощь с получением DTS дорожки Е. Гаевский спасибо n1ko1as
Дорожка с переводом Ю. Живов собрана с чистого голоса

скриншот  скриншот  скриншот  скриншот  

General
Unique ID : 212876951435579516108336514630482727475 (0xA0269C09C337C9C72AA1568277551233)
Complete name : S:Backdraft (1991) WEB-DL 1080p [Open Matte].mkv
Format : Matroska
Format version : Version 4
File size : 16.5 GiB
Duration : 2 h 17 min
Overall bit rate : 17.2 Mb/s
Encoded date : UTC 2019-03-12 16:18:50
Writing application : mkvmerge v31.0.0 ('Dolores In A Shoestand') 64-bit
Writing library : libebml v1.3.6 + libmatroska v1.4.9

Video
ID : 1
Format : AVC
Format/Info : Advanced Video Codec
Format profile : High@L4
Format settings : CABAC / 4 Ref Frames
Format settings, CABAC : Yes
Format settings, ReFrames : 4 frames
Codec ID : V_MPEG4/ISO/AVC
Duration : 2 h 17 min
Bit rate mode : Constant
Bit rate : 10 000 kb/s
Width : 1 920 pixels
Height : 1 080 pixels
Display aspect ratio : 16:9
Frame rate mode : Constant
Frame rate : 23.976 (24000/1001) FPS
Color space : YUV
Chroma subsampling : 4:2:0
Bit depth : 8 bits
Scan type : Progressive
Bits/(Pixel*Frame) : 0.201
Stream size : 9.32 GiB (57%)
Language : English
Default : Yes
Forced : No
Color range : Limited
Color primaries : BT.709
Transfer characteristics : BT.709
Matrix coefficients : BT.709

Audio #1
ID : 2
Format : AC-3
Format/Info : Audio Coding 3
Commercial name : Dolby Digital
Codec ID : A_AC3
Duration : 2 h 17 min
Bit rate mode : Constant
Bit rate : 448 kb/s
Channel(s) : 6 channels
Channel layout : L R C LFE Ls Rs
Sampling rate : 48.0 kHz
Frame rate : 31.250 FPS (1536 SPF)
Bit depth : 16 bits
Compression mode : Lossy
Stream size : 440 MiB (3%)
Title : Киномания
Language : Russian
Service kind : Complete Main
Default : Yes
Forced : No

Audio #2
ID : 3
Format : AC-3
Format/Info : Audio Coding 3
Commercial name : Dolby Digital
Codec ID : A_AC3
Duration : 2 h 17 min
Bit rate mode : Constant
Bit rate : 384 kb/s
Channel(s) : 6 channels
Channel layout : L R C LFE Ls Rs
Sampling rate : 48.0 kHz
Frame rate : 31.250 FPS (1536 SPF)
Bit depth : 16 bits
Compression mode : Lossy
Stream size : 377 MiB (2%)
Title : R5
Language : Russian
Service kind : Complete Main
Default : No
Forced : No

Audio #3
ID : 4
Format : AC-3
Format/Info : Audio Coding 3
Commercial name : Dolby Digital
Codec ID : A_AC3
Duration : 2 h 17 min
Bit rate mode : Constant
Bit rate : 192 kb/s
Channel(s) : 2 channels
Channel layout : L R
Sampling rate : 48.0 kHz
Frame rate : 31.250 FPS (1536 SPF)
Bit depth : 16 bits
Compression mode : Lossy
Stream size : 189 MiB (1%)
Title : Первый канал
Language : Russian
Service kind : Complete Main
Default : No
Forced : No

Audio #4
ID : 5
Format : AC-3
Format/Info : Audio Coding 3
Commercial name : Dolby Digital
Codec ID : A_AC3
Duration : 2 h 17 min
Bit rate mode : Constant
Bit rate : 192 kb/s
Channel(s) : 2 channels
Channel layout : L R
Sampling rate : 48.0 kHz
Frame rate : 31.250 FPS (1536 SPF)
Bit depth : 16 bits
Compression mode : Lossy
Stream size : 189 MiB (1%)
Title : Премьер Видео фильм
Language : Russian
Service kind : Complete Main
Default : No
Forced : No

Audio #5
ID : 6
Format : DTS
Format/Info : Digital Theater Systems
Codec ID : A_DTS
Duration : 2 h 17 min
Bit rate mode : Constant
Bit rate : 1 510 kb/s
Channel(s) : 6 channels
Channel layout : C L R Ls Rs LFE
Sampling rate : 48.0 kHz
Frame rate : 93.750 FPS (512 SPF)
Bit depth : 24 bits
Compression mode : Lossy
Stream size : 1.45 GiB (9%)
Title : А. Гаврилов
Language : Russian
Default : No
Forced : No

Audio #6
ID : 7
Format : DTS
Format/Info : Digital Theater Systems
Codec ID : A_DTS
Duration : 2 h 17 min
Bit rate mode : Constant
Bit rate : 1 510 kb/s
Channel(s) : 6 channels
Channel layout : C L R Ls Rs LFE
Sampling rate : 48.0 kHz
Frame rate : 93.750 FPS (512 SPF)
Bit depth : 24 bits
Compression mode : Lossy
Stream size : 1.45 GiB (9%)
Title : Ю.Живов
Language : Russian
Default : No
Forced : No

Audio #7
ID : 8
Format : DTS
Format/Info : Digital Theater Systems
Codec ID : A_DTS
Duration : 2 h 17 min
Bit rate mode : Constant
Bit rate : 1 510 kb/s
Channel(s) : 6 channels
Channel layout : C L R Ls Rs LFE
Sampling rate : 48.0 kHz
Frame rate : 93.750 FPS (512 SPF)
Bit depth : 24 bits
Compression mode : Lossy
Stream size : 1.45 GiB (9%)
Title : Е.Гаевский
Default : No
Forced : No

Audio #8
ID : 9
Format : AC-3
Format/Info : Audio Coding 3
Commercial name : Dolby Digital
Codec ID : A_AC3
Duration : 2 h 17 min
Bit rate mode : Constant
Bit rate : 192 kb/s
Channel(s) : 2 channels
Channel layout : L R
Sampling rate : 48.0 kHz
Frame rate : 31.250 FPS (1536 SPF)
Bit depth : 16 bits
Compression mode : Lossy
Stream size : 189 MiB (1%)
Language : Ukrainian
Service kind : Complete Main
Default : No
Forced : No

Audio #9
ID : 10
Format : DTS
Format/Info : Digital Theater Systems
Codec ID : A_DTS
Duration : 2 h 17 min
Bit rate mode : Constant
Bit rate : 1 510 kb/s
Channel(s) : 6 channels
Channel layout : C L R Ls Rs LFE
Sampling rate : 48.0 kHz
Frame rate : 93.750 FPS (512 SPF)
Bit depth : 24 bits
Compression mode : Lossy
Stream size : 1.45 GiB (9%)
Language : English
Default : No
Forced : No

Text #1
ID : 11
Format : UTF-8
Codec ID : S_TEXT/UTF8
Codec ID/Info : UTF-8 Plain Text
Duration : 2 h 9 min
Bit rate : 70 b/s
Count of elements : 1370
Stream size : 66.9 KiB (0%)
Language : Russian
Default : No
Forced : No

Text #2
ID : 12
Format : UTF-8
Codec ID : S_TEXT/UTF8
Codec ID/Info : UTF-8 Plain Text
Duration : 2 h 13 min
Bit rate : 53 b/s
Count of elements : 1584
Stream size : 52.6 KiB (0%)
Title : SDH
Language : English
Default : No
Forced : No

Text #3
ID : 13
Format : UTF-8
Codec ID : S_TEXT/UTF8
Codec ID/Info : UTF-8 Plain Text
Duration : 2 h 13 min
Bit rate : 51 b/s
Count of elements : 1552
Stream size : 49.8 KiB (0%)
Language : English
Default : No
Forced : No

pb.wtf



Скачать Обратная тяга через торрент http://s017.radikal.ru/i427/1508/5f/bc5def6d3737.jpg Скачать фильм Обратная тяга через торрент бесплантно в хорошем качестве Описание: «Обратная тяга» — это термин профессиональных пожарных. В результате «обратной тяги» погибает отец Брайана и Стивена. В отличие ... 10 10 5
Торрент: Зарегистрирован [2019-03-19 20:21] · скачан: 40 раз
Статус: √ проверено
Размер: 16.47 GB
Как cкачать? Как скачать Обратная тяга через торрент | qTorrent

% Раздел Тема Автор DL S | L
Фильмы [HD 720p, 1080p] (Хороший звук DUB, MVO) [ 17.69 GB ] Обратная тяга / Backdraft [1991 BDRip 1080p by msltel] 2 x MVO 2 x DVO 2 x AVO VO msltel Скачать
1 | 0
T Фильмы [HD 720p, 1080p] (Хороший звук DUB, MVO) [ 10.47 GB ] Обратная тяга 2 / Backdraft 2 [2019 BDRip 1080p] MVO [HDRezka Studio] sheker187 Скачать
2 | 0
Фильмы (Blu-ray, BD-Remux, HDDVD) [ 19.71 GB ] Обратная тяга 2 / Backdraft 2 [2019 BDRemux 1080p] MVO [HDRezka Studio] sheker187 Скачать
1 | 0
Фильмы [HD 720p, 1080p] (Хороший звук DUB, MVO) [ 6.9 GB ] Обратная тяга / Backdraft [1991 BDRip 720p by msltel] 2 x MVO 2 x DVO 2 x AVO VO msltel Скачать
1 | 0
Ultra HD (UHD: 2K, 4K, 8K) — видео сверхвысокой чёткости [ 59.06 GB ] Обратная тяга / Backdraft [1991 UHD BDRemux 2160p] 2xMVO + 2xDVO + 2xAVO sheker187 Скачать
1 | 0
Ultra HD (UHD: 2K, 4K, 8K) — видео сверхвысокой чёткости [ 59.62 GB ] Обратная тяга / Backdraft [1991 UHD Blu-ray EUR 2160p] MVO [ BD EUR] sheker187 Скачать
1 | 0
Ultra HD (UHD: 2K, 4K, 8K) — видео сверхвысокой чёткости [ 37.32 GB ] Обратная тяга / Backdraft [1991 UHD BDRip 2160p] MVO + 3xAVO sheker187 Скачать
1 | 0

28-11-2019 20:33  

Отключить всю рекламу на сайте

20-03-2019 06:49 Обратная тяга Скачать торрент  

Отличный фильмpb.wtf



21-03-2019 15:19 Обратная тяга Скачать торрент  

Офигительный фильм моей юности!pb.wtf



    Дорогой пользователь! Огромная просьба, поблагодарите релизера, оцените раздачу и оставьте свои комментарий, если Вы скачали Обратная тяга через торрент бесплатно! Внесите свою лепту в развитие PiratBit!
    Комментировать посты могут только пользователи прошедшие не сложную регистрацию
    Показать сообщения:    

    Обратная тяга через торрент
    Скачать бесплатно Обратная тяга
    Обратная тяга скачать торрент
    Обратная тяга смотреть онлайн
    Cкачать фильм Обратная тяга бесплатно
    Обратная тяга скачать торрент в хорошем качестве
    Обратная тяга смотреть онлайн бесплатно в хорошем качестве


    Вы не можете начинать темы
    Вы не можете отвечать на сообщения
    Вы не можете редактировать свои сообщения
    Вы не можете удалять свои сообщения
    Вы не можете голосовать в опросах
    Вы не можете прикреплять файлы к сообщениям
    Вы можете скачивать файлы