Ссылка на приватное зеркало нашего сайта всего за 1$. Внимание количество ограничено!!!

2 сезон

iTunes

1 сезон

1

2 сезон

2 сезон

iTunes

1 сезон

RePack

30

Ultimate

ВАЖНО

ИГРА 18+

pack

RePack

MK11
pack

Забери бонус

RePack

jed

!!Акция!!

Alien_Rage

RePack

fifa19

RePack

Assassins Creed: Odyssey

RePack

NEED FOR SPEED™ PAYBACK

4 сезон

9 сезон

Бесстыжие 9 сезон

Все сериалы

все сериалы на PB.wtf

RePack

FAR CRY 5
  

Миллиарды / Billions / Сезон 03 / Серии 01-09 из 12 (Эми Дж. Кауфман, Брайан Коппельман, Дэвид Левин) [2018, драма, WEB-DLRip] [DVO] (Gears Media) pb.wtf

Миллиарды через торрент pb.wtf

Размер: 4.62 GB | Добавлен: 2 года 5 мес. назад | Торрент скачан:4 раза
Скачать  

27-03-2018 16:43 Миллиарды Скачать торрент  

Миллиарды / Billions
Год выпуска: 2018
Страна: США
Жанр: драма
Продолжительность: 1х~ 01:00:00
Перевод: Профессиональный (двухголосый, закадровый) Gears Media
Субтитры: нет

Режиссёры: Эми Дж. Кауфман, Брайан Коппельман, Дэвид Левин

В ролях: Дэмиэн Льюис, Пол Джаматти, Мэгги Сифф, Малин Акерман, Тоби Леонард Мур, Дэвид Костабайл, Дэниэл К. Исаак, Фрэнк Хартс и др.

Описание:
В мире власти и больших денег, в самом сердце Нью- Йорка, вовсю идет противостояние амбициозного финансиста с Уолл-стрит Бобби Аксельрода и принципиального федерального прокурора Чака Родса.



Качество: WEB-DLRip
Формат: AVI
Видео: XviD, ~ 1100 Кбит/с, 720x400, 23.976 fps
Аудио: 48 kHz, MP3,2 Ch, 128.00 kbps
General
Complete name : F:\Billions S03 (2018) WEB-DL [Gears Media]\Billions S03E01 (2018) WEB-DL [Gears Media].avi
Format : AVI
Format/Info : Audio Video Interleave
File size : 496 MiB
Duration : 59 min 32 s
Overall bit rate : 1 165 kb/s
Writing application : Lavf56.30.100

Video
ID : 0
Format : xvid
Codec ID : xvid
Duration : 59 min 32 s
Bit rate : 982 kb/s
Width : 720 pixels
Height : 400 pixels
Display aspect ratio : 16:9
Frame rate : 23.976 (24000/1001) FPS
Scan type : Progressive
Bits/(Pixel*Frame) : 0.142
Stream size : 418 MiB (84%)

Audio
ID : 1
Format : MPEG Audio
Format version : Version 1
Format profile : Layer 3
Format settings : Joint stereo / MS Stereo
Mode : Joint stereo
Mode extension : MS Stereo
Codec ID : 55
Codec ID/Hint : MP3
Duration : 59 min 32 s
Bit rate mode : Constant
Bit rate : 128 kb/s
Channel(s) : 2 channels
Sampling rate : 48.0 kHz
Compression mode : Lossy
Stream size : 54.5 MiB (11%)
Alignment : Aligned on interleaves
Title : Gears Media
скриншот  скриншот  скриншот  
Внимание! Раздача ведётся путём добавления новых серий; при каждом добавлении создаётся новый торрент. Чтобы начать докачку новой серии, пользователям необходимо сделать следующее:
(1) остановить скачивание,
(2) удалить старый торрент у себя из клиента (старые серии удалять не надо),
(3) скачать новый торрент и запустить его у себя в клиенте вместо старого, при этом указать клиенту путь в старую папку куда и должно происходить скачивание новых серий.
Ваш клиент при этом должен произвести хеширование (проверку) старой папки (если не производит сам - помогите ему сделать это), и будет докачивать только те серии которых у вас ещё нет. Старые серии при этом не удаляются, а продолжают раздаваться!
Eсли вы уже удалили старые серии, то предотвратить повторную закачку старых серий можно, отжав галочку в соответствующих местах при запуске нового торрента. По возможности, желательно не удалять старые серии как можно дольше чтобы релизёр не столько продолжал раздавать старые серии, а смог сконцентрироваться на новых.
pb.wtf



Скачать Миллиарды через торрент http://i100.fastpic.ru/big/2018/0325/ab/cc131a6f7f47d8240228d9ac13afb8ab.jpg Скачать фильм Миллиарды через торрент бесплантно в хорошем качестве Описание:В мире власти и больших денег, в самом сердце Нью- Йорка, вовсю идет противостояние амбициозного финансиста с Уолл-стрит Бобби ... 10 10 2
Торрент: Зарегистрирован [2018-05-31 15:37] · скачан: 4 раз
Статус: √ проверено
Размер: 4.62 GB
Как cкачать? Как скачать Миллиарды через торрент | qTorrent



Последний раз редактировалось: killermax2013 (2018-05-31 15:36), всего редактировалось 1 раз

28-11-2019 20:33  

Отключить всю рекламу на сайте

09-05-2018 12:03 Миллиарды Скачать торрент  

+2-6pb.wtf



    Дорогой пользователь! Огромная просьба, поблагодарите релизера, оцените раздачу и оставьте свои комментарий, если Вы скачали Миллиарды через торрент бесплатно! Внесите свою лепту в развитие PiratBit!
    Комментировать посты могут только пользователи прошедшие не сложную регистрацию
    Показать сообщения:    

    Миллиарды через торрент
    Скачать бесплатно Миллиарды
    Миллиарды скачать торрент
    Миллиарды смотреть онлайн
    Cкачать фильм Миллиарды бесплатно
    Миллиарды скачать торрент в хорошем качестве
    Миллиарды смотреть онлайн бесплатно в хорошем качестве


    Вы не можете начинать темы
    Вы не можете отвечать на сообщения
    Вы не можете редактировать свои сообщения
    Вы не можете удалять свои сообщения
    Вы не можете голосовать в опросах
    Вы не можете прикреплять файлы к сообщениям
    Вы можете скачивать файлы