Ссылка на приватное зеркало нашего сайта всего за 1$. Внимание количество ограничено!!!

2 сезон

iTunes

1 сезон

1

2 сезон

2 сезон

iTunes

1 сезон

RePack

30

Новинка

ВАЖНО

ИГРА 18+

pack

RePack

MK11
pack

Забери бонус

RePack

jed

!!Акция!!

Alien_Rage

RePack

fifa19

RePack

Assassins Creed: Odyssey

RePack

NEED FOR SPEED™ PAYBACK

4 сезон

9 сезон

Бесстыжие 9 сезон

Все сериалы

все сериалы на PB.wtf

RePack

FAR CRY 5
  

Пикник у Висячей скалы / Picnic at Hanging Rock / Сезон: 1 / Серии: 1-6 из 6 (Лариса Кондрацки, Майкл Раймер, Аманда Бротчи) [2018, Драма, мелодрама, детектив, WEB-DLRip] MVO [Good People] pb.wtf

Пикник у Висячей скалы через торрент pb.wtf

Размер: 3.77 GB | Добавлен: 1 год 8 мес. назад | Торрент скачан:12 раз
Скачать  

20-03-2019 01:12 Пикник у Висячей скалы Скачать торрент  

Пикник у Висячей скалы / Picnic at Hanging Rock

Год выпуска: 2018
Страна: Австралия, Amazon Studios, FremantleMedia Australia, Screen Australia
Жанр: Драма, мелодрама, детектив
Продолжительность: ~ 00:50:00
Перевод: Профессиональный (многоголосый закадровый) | Good People
Субтитры: отсутствуют

Режиссёр: Лариса Кондрацки, Майкл Раймер, Аманда Бротчи

В ролях:

Натали Дормер, Лили Салливан, Лола Бесси, Харрисон Гилбертсон, Самара Уивинг, Руби Рис, Яэль Стоун, Джеймс Хоар

Описание:

Австралийский мистический телесериал, римейк одноимённого фильма 1975 года, созданного на основе книги современной австралийской писательницы Джоан Линдси. Действие начинается в 1900 году, в Валентинов день, когда группа воспитанниц женского пансиона под Мельбурном отправляется отдохнуть на природе. Они едут к Висячей скале - реально существующей горе Хангинг-Рок в нескольких десятках километрах к северу от Мельбурна. Это скалистый кряж вулканического происхождения высотой около 100 м ранее служил местным племенам как место для культовых обрядов, а после того, как фильм вышел на экраны, стал популярным объектом среди туристов. Директриса колледжа миссис Эппльярд (Натали Дормер) установила среди подопечных жёсткую дисциплину. Затянутые в корсеты воспитанницы живут по канонам викторианской эпохи и не имеют доступа к мужскому обществу. Поездка на пикник - это праздник в их унылой и скучной жизни. Устроившись в тени горы, девушки и их воспитательницы пробуют торт и в полдень большинство из них впадает в дрёму. Однако три девушки - Ирма, Миранда и Мэрион - уходят полазить по скалам, а сопровождающая их учительница мисс Макгро решает присмотреть за ними. Наступает вечер, но эти четверо не возвращаются...

rating

Качество: WEBRip
Формат: AVI

Видео: XviD, ~ 1500 kbps, 704x352 (2,000), 25,000 fps
Аудио 1: MP3, 48,0 КГц, 2 ch, 128 kbps - Rus
Аудио 2: MP3, 48,0 КГц, 2 ch, 128 kbps - Eng


Реклама: Присутствует звуковая (два раза в начале и конце по 10 сек.)
Общее
Полное имя                               : I:\GoodPeople\Picnic at Hanging Rock. Season 1 (WEB-DLRip l 400p l Good People)\Picnic.at.Hanging.Rock.S01E01.WEB-DLRip.Rus.Eng.GoodPeople.avi
Формат                                   : AVI
Формат/Информация                        : Audio Video Interleave
Размер файла                             : 660 Мбайт
Продолжительность                        : 52 м. 9 с.
Общий поток                              : 1770 Кбит/сек
Программа кодирования                    : VirtualDubMod 1.5.10.3 | www.virtualdub-fr.org || (build 2550/release)
Библиотека кодирования                   : VirtualDubMod build 2550/release

Видео
Идентификатор                            : 0
Формат                                   : MPEG-4 Visual
Профиль формата                          : Advanced Simple@L5
Настройки формата                        : BVOP2
Параметр BVOP формата                    : 2
Параметр QPel формата                    : Нет
Параметр GMC формата                     : Без точки перехода
Параметр матрицы формата                 : Default (MPEG)
Идентификатор кодека                     : XVID
Идентификатор кодека/Подсказка           : XviD
Продолжительность                        : 52 м. 9 с.
Битрейт                                  : 1500 Кбит/сек
Ширина                                   : 704 пикселя
Высота                                   : 352 пикселя
Соотношение сторон                       : 2,000
Частота кадров                           : 25,000 кадров/сек
Цветовое пространство                    : YUV
Субдискретизация насыщенности            : 4:2:0
Битовая глубина                          : 8 бит
Тип развёртки                            : Прогрессивная
Метод сжатия                             : С потерями
Бит/(Пиксели*Кадры)                      : 0.242
Размер потока                            : 560 Мбайт (85%)
Библиотека кодирования                   : XviD 1.2.1 (UTC 2008-12-04)

Аудио #1
Идентификатор                            : 1
Формат                                   : MPEG Audio
Версия формата                           : Version 1
Профиль формата                          : Layer 3
Настройки формата                        : Joint stereo / MS Stereo
Идентификатор кодека                     : 55
Идентификатор кодека/Подсказка           : MP3
Продолжительность                        : 52 м. 9 с.
Вид битрейта                             : Постоянный
Битрейт                                  : 128 Кбит/сек
Каналы                                   : 2 канала
Частота                                  : 48,0 КГц
Метод сжатия                             : С потерями
Размер потока                            : 47,8 Мбайт (7%)
Выравнивание                             : Соединение по промежуткам
Продолжительность промежутка             : 40  мс. (1,00 видеокадр)
Время предзагрузки промежутка            : 504  мс.

Аудио #2
Идентификатор                            : 2
Формат                                   : MPEG Audio
Версия формата                           : Version 1
Профиль формата                          : Layer 3
Настройки формата                        : Joint stereo
Идентификатор кодека                     : 55
Идентификатор кодека/Подсказка           : MP3
Продолжительность                        : 52 м. 9 с.
Вид битрейта                             : Постоянный
Битрейт                                  : 128 Кбит/сек
Каналы                                   : 2 канала
Частота                                  : 48,0 КГц
Частота кадров                           : 41,667 кадра/сек (1152 SPF)
Метод сжатия                             : С потерями
Размер потока                            : 47,8 Мбайт (7%)
Выравнивание                             : Соединение по промежуткам
Продолжительность промежутка             : 40  мс. (1,00 видеокадр)
Время предзагрузки промежутка            : 504  мс.
Библиотека кодирования                   : LAME3.100
Настройки программы                      : -m j -V 4 -q 3 -lowpass 17 -b 128
скриншот  скриншот  скриншот  скриншот  
pb.wtf



Скачать Пикник у Висячей скалы через торрент https://i109.fastpic.ru/big/2019/0320/78/9665c36327bd577208af38aafb46c278.png Скачать фильм Пикник у Висячей скалы через торрент бесплантно в хорошем качестве Описание: Австралийский мистический телесериал, римейк одноимённого фильма 1975 года, созданного на основе книги современной австралийской ... 10 10 2
Торрент: Зарегистрирован [2019-03-20 01:12] · скачан: 12 раз
Статус: √ проверено
Размер: 3.77 GB
Как cкачать? Как скачать Пикник у Висячей скалы через торрент | qTorrent

% Раздел Тема Автор DL S | L
Зарубежные сериалы [ 8.41 GB ] Пикник у Висячей скалы / Picnic at Hanging Rock / Сезон: 1 / Серии: 1-6 из 6 [2018 Мело WEBRip 720p] MVO [Good People] bober100 Скачать
1 | 0
Зарубежные сериалы [ 19.36 GB ] Пикник у Висячей скалы / Picnic at Hanging Rock / Сезон: 1 / Серии: 1-6 из 6 [2018 WEB-DL 1080p] MVO [TVShows] bober100 Скачать
1 | 0
Зарубежные сериалы [ 3.77 GB ] Пикник у Висячей скалы / Picnic at Hanging Rock / Сезон: 1 / Серии: 1-6 из 6 [2018 WEBRip] MVO [Jaskier] bober100 Скачать
1 | 0
Зарубежные сериалы [ 7.77 GB ] Пикник у Висячей скалы / Picnic at Hanging Rock / Сезон: 1 / Серии: 1-6 из 6 [2018 WEBRip 720p] MVO [Jaskier] bober100 Скачать
1 | 0
Зарубежные сериалы [ 4.1 GB ] Пикник у Висячей скалы / Picnic at Hanging Rock / Сезон: 1 / Серии: 1-6 из 6 [2018 WEB-DLRip] MVO [NewStudio] bober100 Скачать
1 | 0

28-11-2019 20:33  

Отключить всю рекламу на сайте

    Дорогой пользователь! Огромная просьба, поблагодарите релизера, оцените раздачу и оставьте свои комментарий, если Вы скачали Пикник у Висячей скалы через торрент бесплатно! Внесите свою лепту в развитие PiratBit!
    Комментировать посты могут только пользователи прошедшие не сложную регистрацию
    Показать сообщения:    

    Пикник у Висячей скалы через торрент
    Скачать бесплатно Пикник у Висячей скалы
    Пикник у Висячей скалы скачать торрент
    Пикник у Висячей скалы смотреть онлайн
    Cкачать фильм Пикник у Висячей скалы бесплатно
    Пикник у Висячей скалы скачать торрент в хорошем качестве
    Пикник у Висячей скалы смотреть онлайн бесплатно в хорошем качестве


    Вы не можете начинать темы
    Вы не можете отвечать на сообщения
    Вы не можете редактировать свои сообщения
    Вы не можете удалять свои сообщения
    Вы не можете голосовать в опросах
    Вы не можете прикреплять файлы к сообщениям
    Вы можете скачивать файлы