Ссылка на приватное зеркало нашего сайта всего за 1$. Внимание количество ограничено!!!

2 сезон

iTunes

1 сезон

1

2 сезон

2 сезон

iTunes

1 сезон

RePack

30

Новинка

ВАЖНО

ИГРА 18+

pack

RePack

MK11
pack

Забери бонус

RePack

jed

!!Акция!!

Alien_Rage

RePack

fifa19

RePack

Assassins Creed: Odyssey

RePack

NEED FOR SPEED™ PAYBACK

4 сезон

9 сезон

Бесстыжие 9 сезон

Все сериалы

все сериалы на PB.wtf

RePack

FAR CRY 5
  

МакМафия / McMafia / Сезон: 1 / Серии: 1-8 из 8 (Джеймс Уоткинс) [2018, Триллер, драма, криминал, HDRip] MVO [Good People] pb.wtf

МакМафия через торрент pb.wtf

Размер: 5.47 GB | Добавлен: 1 год 8 мес. назад | Торрент скачан:54 раза
Скачать  

20-03-2019 01:53 МакМафия Скачать торрент  

МакМафия / McMafia Год выпуска: 2018
Страна: Великобритания, США, American Movie Classics (AMC), British Broadcasting Corporation (BBC)
Жанр: Триллер, драма, криминал
Продолжительность: 00:50:00
Перевод: Профессиональный (многоголосый закадровый) | Good People

Режиссёр: Джеймс Уоткинс

В ролях:

Джеймс Нортон, Дэвид Стрэтэйрн, Джульет Райлэнс, Алексей Серебряков, Мария Шукшина, Ошри Коэн, Мераб Нинидзе, Клиффорд Сэмюэл, Юваль Шарф, Атул Кейл

Описание:

У Александра Гудмана русские корни. Его семья когда-то покинула родину для того, чтобы в новой стране обеспечить потомкам достойную жизнь. Людям чаще всего нужны веские основания для эмиграции. У семьи Александра они были. После эмиграции Влacть и деньги стали приоритетом, а преступление – способом их получить. Озлобленность, агрессия к государственным властям, законам и социальным рамкам привела к тому, что появился новый мафиозный клан. Независимо от экономической ситуации на международном финансовом рынке, от политики президента и внешнеполитического курса обеспечивать выживание своим близким любой ценой – закон для семьи. Быть членом одного из кланов русской мафии нелегко. Родившемуся в такой семье ребёнку сложно победить, отстоять право на инакомыслие, обрести самостоятельность. Александр мог бы стать главой клана однажды, но решил, всё же, рискнуть, сказать «нет» своим родителям и прочим родственникам. Он влюбился и одурманенный этим чувством решил жить как все – создать свой собственный бизнес, рекламировать его, платить налоги, преодолевать возражения, передать его по наследству детям, ни разу не попав за долгие годы спокойной, счастливой жизни в тюрьму. Однако волею случая он оказался на краю пропасти. Он обязан стать мафиози, притвориться им, ведь только так он сможет спасти свою любовь.

rating

Качество: HDRip
Формат: AVI

Видео: XviD, ~ 1450 kbps, 720x400 (16:9), 25.000 fps
Аудио 1: MP3, 48,0 КГц, 2 ch, 128 kbps - Rus
Аудио 2: MP3, 48,0 КГц, 2 ch, 128 kbps - Eng


Реклама: Присутствует звуковая (два раза в начале и конце по 10 сек.)
Общее
Полное имя                               : G:\Загрузки\McMafia. Season 1 (HDRip l 400p l Good People)\McMafia.S01E01.HDRip.Rus.Eng.GoodPeople.avi
Формат                                   : AVI
Формат/Информация                        : Audio Video Interleave
Размер файла                             : 701 Мбайт
Продолжительность                        : 56 м. 8 с.
Общий поток                              : 1745 Кбит/сек
Программа кодирования                    : VirtualDubMod 1.5.10.3 | www.virtualdub-fr.org || (build 2550/release)
Библиотека кодирования                   : VirtualDubMod build 2550/release

Видео
Идентификатор                            : 0
Формат                                   : MPEG-4 Visual
Профиль формата                          : Advanced Simple@L5
Настройки формата                        : BVOP1 / Custom Matrix
Параметр BVOP формата                    : 1
Параметр QPel формата                    : Нет
Параметр GMC формата                     : Без точки перехода
Параметр матрицы формата                 : Выборочная
Идентификатор кодека                     : XVID
Идентификатор кодека/Подсказка           : XviD
Продолжительность                        : 56 м. 8 с.
Битрейт                                  : 1475 Кбит/сек
Ширина                                   : 720 пикселей
Высота                                   : 400 пикселей
Соотношение сторон                       : 16:9
Частота кадров                           : 25,000 кадров/сек
Цветовое пространство                    : YUV
Субдискретизация насыщенности            : 4:2:0
Битовая глубина                          : 8 бит
Тип развёртки                            : Прогрессивная
Метод сжатия                             : С потерями
Бит/(Пиксели*Кадры)                      : 0.205
Размер потока                            : 592 Мбайт (85%)
Библиотека кодирования                   : XviD 73

Аудио #1
Идентификатор                            : 1
Формат                                   : MPEG Audio
Версия формата                           : Version 1
Профиль формата                          : Layer 3
Настройки формата                        : Joint stereo / MS Stereo
Идентификатор кодека                     : 55
Идентификатор кодека/Подсказка           : MP3
Продолжительность                        : 56 м. 7 с.
Вид битрейта                             : Постоянный
Битрейт                                  : 128 Кбит/сек
Каналы                                   : 2 канала
Частота                                  : 48,0 КГц
Метод сжатия                             : С потерями
Размер потока                            : 51,4 Мбайт (7%)
Выравнивание                             : Соединение по промежуткам
Продолжительность промежутка             : 40  мс. (1,00 видеокадр)
Время предзагрузки промежутка            : 504  мс.

Аудио #2
Идентификатор                            : 2
Формат                                   : MPEG Audio
Версия формата                           : Version 1
Профиль формата                          : Layer 3
Настройки формата                        : Joint stereo / MS Stereo
Идентификатор кодека                     : 55
Идентификатор кодека/Подсказка           : MP3
Продолжительность                        : 56 м. 7 с.
Вид битрейта                             : Постоянный
Битрейт                                  : 128 Кбит/сек
Каналы                                   : 2 канала
Частота                                  : 48,0 КГц
Метод сжатия                             : С потерями
Размер потока                            : 51,4 Мбайт (7%)
Выравнивание                             : Соединение по промежуткам
Продолжительность промежутка             : 40  мс. (1,00 видеокадр)
Время предзагрузки промежутка            : 504  мс.
скриншот  скриншот  скриншот  скриншот  
pb.wtf



Скачать МакМафия через торрент https://i106.fastpic.ru/big/2019/0104/ff/88c97c418e1f7b939f70a4854e3ec3ff.jpg Скачать фильм МакМафия через торрент бесплантно в хорошем качестве Описание: У Александра Гудмана русские корни. Его семья когда-то покинула родину для того, чтобы в новой стране обеспечить потомкам ... 7 10 3
Торрент: Зарегистрирован [2019-03-20 01:53] · скачан: 54 раз
Статус: √ проверено
Размер: 5.47 GB
Как cкачать? Как скачать МакМафия через торрент | qTorrent

% Раздел Тема Автор DL S | L
Зарубежные сериалы [ 24.11 GB ] МакМафия / McMafia / Сезон: 1 / Серии: 1-8 из 8 [2018 BDRip 720p] MVO [Good People] bober100 Скачать
1 | 0
Зарубежные сериалы [ 7.57 GB ] МакМафия / McMafia / Сезон: 1 / Серии: 1-8 из 8 [2018 BDRip] [MVO] killermax2013 Скачать
2 | 0
Зарубежные сериалы [ 13.75 GB ] МакМафия / McMafia / Сезон 1 / Серии 1-8 из 8 [2017 WEB-DLRip 720р] [MVO] killermax2013 Скачать
1 | 0
Зарубежные сериалы [ 15.1 GB ] МакМафия / McMafia / Сезон: 1 / Серии: 1-8 из 8 [2017 WEBRip 720p] MVO [Jaskier] bober100 Скачать
1 | 0
Зарубежные сериалы [ 25.41 GB ] МакМафия / McMafia / Сезон 1 / Серии 1-8 из 8 [2017 WEBRip 1080p] MVO [BaibaKo] bober100 Скачать
1 | 0
Зарубежные сериалы [ 23.64 GB ] МакМафия / McMafia / Сезон: 1 / Серии: 1-8 из 8 [2017 WEBRip 1080p] MVO [Jaskier] bober100 Скачать
1 | 0
Зарубежные сериалы [ 5.66 GB ] МакМафия / McMafia / Сезон: 1 / Серии: 1-8 из 8 [2017 WEBRip] MVO [Jaskier] bober100 Скачать
1 | 0

28-11-2019 20:33  

Отключить всю рекламу на сайте

    Дорогой пользователь! Огромная просьба, поблагодарите релизера, оцените раздачу и оставьте свои комментарий, если Вы скачали МакМафия через торрент бесплатно! Внесите свою лепту в развитие PiratBit!
    Комментировать посты могут только пользователи прошедшие не сложную регистрацию
    Показать сообщения:    

    МакМафия через торрент
    Скачать бесплатно МакМафия
    МакМафия скачать торрент
    МакМафия смотреть онлайн
    Cкачать фильм МакМафия бесплатно
    МакМафия скачать торрент в хорошем качестве
    МакМафия смотреть онлайн бесплатно в хорошем качестве


    Вы не можете начинать темы
    Вы не можете отвечать на сообщения
    Вы не можете редактировать свои сообщения
    Вы не можете удалять свои сообщения
    Вы не можете голосовать в опросах
    Вы не можете прикреплять файлы к сообщениям
    Вы можете скачивать файлы