Ссылка на приватное зеркало нашего сайта всего за 1$. Внимание количество ограничено!!!

2 сезон

iTunes

1 сезон

1

2 сезон

2 сезон

iTunes

1 сезон

RePack

30

Ultimate

ВАЖНО

ИГРА 18+

pack

RePack

MK11
pack

Забери бонус

RePack

jed

!!Акция!!

Alien_Rage

RePack

fifa19

RePack

Assassins Creed: Odyssey

RePack

NEED FOR SPEED™ PAYBACK

4 сезон

9 сезон

Бесстыжие 9 сезон

Все сериалы

все сериалы на PB.wtf

RePack

FAR CRY 5
  

МакМафия / McMafia / Сезон: 1 / Серии: 1-8 из 8 (Джеймс Уоткинс) [2018, Триллер, драма, криминал, BDRip 720p] MVO [Good People] pb.wtf

МакМафия через торрент pb.wtf

Размер: 24.11 GB | Добавлен: 1 год 8 мес. назад | Торрент скачан:10 раз
Скачать  

20-03-2019 01:58 МакМафия Скачать торрент  

МакМафия / McMafia Оригинальное название: McMafia
Русское название: МакМафия
Год выпуска: 2018
Страна: Великобритания, США
Жанр: Триллер, драма, криминал
Продолжительность: ~00:42:00 мин.
Перевод: Профессиональный (многоголосый закадровый) | Студия Good People
Субтитры: Да (английские)

Режиссёр: Джеймс Уоткинс

rating

В ролях:

Джеймс Нортон, Дэвид Стрэтэйрн, Джульет Райлэнс, Алексей Серебряков, Мария Шукшина, Ошри Коэн, Мераб Нинидзе, Клиффорд Сэмюэл, Юваль Шарф, Атул Кейл

Описание:

В центре истории — русская семья из Лондона, вовлечённая в криминальную деятельность международного масштаба: отмывание денег, киберпреступления, торговлю на чёрном рынке, наркотрафик и многое другое. Главный герой Алекс пытается сбежать от тёмного прошлого своей семьи, наладив собственный легальный бизнес; а вот прошлое не готово расстаться с Алексом, угрожая его жизни и жизням всех, кто ему дорог.

Качество: BDRip 720p
Формат: MKV
Видео кодек: AVC
Аудио кодек: AC3

Видео: H264, 1280x720, 23.976 fps, ~6800kbps, 0.298 bit/pixel

Аудио 1: Dolby AC3 48000Hz 6ch 640 Kbps Русский
Аудио 3: Dolby AC3 48000Hz 6ch 640 Kbps Оригинал


Реклама: Присутствует звуковая (два раза в начале и конце по 12 сек.)
General
Unique ID                                : 235152961108663877132378182386389327965 (0xB0E8D01C3FD2E134A7BB197681BBA05D)
Complete name                            : McMafia.S01E01.720p.BluRay.DD5.1.x264-GoodPeople.mkv
Format                                   : Matroska
Format version                           : Version 4
File size                                : 3.20 GiB
Duration                                 : 56 min 8 s
Overall bit rate                         : 8 155 kb/s
Encoded date                             : UTC 2019-01-04 01:49:05
Writing application                      : mkvmerge v17.0.0 ('Be Ur Friend') 64-bit
Writing library                          : libebml v1.3.5 + libmatroska v1.4.8

Video
ID                                       : 1
Format                                   : AVC
Format/Info                              : Advanced Video Codec
Format profile                           : High@L4.1
Format settings                          : CABAC / 9 Ref Frames
Format settings, CABAC                   : Yes
Format settings, ReFrames                : 9 frames
Codec ID                                 : V_MPEG4/ISO/AVC
Duration                                 : 56 min 8 s
Bit rate                                 : 6 873 kb/s
Width                                    : 1 280 pixels
Height                                   : 720 pixels
Display aspect ratio                     : 16:9
Frame rate mode                          : Constant
Frame rate                               : 25.000 FPS
Color space                              : YUV
Chroma subsampling                       : 4:2:0
Bit depth                                : 8 bits
Scan type                                : Progressive
Bits/(Pixel*Frame)                       : 0.298
Stream size                              : 2.69 GiB (84%)
Writing library                          : x264 core 155 r2901 7d0ff22
Encoding settings                        : cabac=1 / ref=9 / deblock=1:-3:-3 / analyse=0x3:0x113 / me=umh / subme=11 / psy=1 / psy_rd=1.00:0.00 / mixed_ref=1 / me_range=32 / chroma_me=1 / trellis=2 / 8x8dct=1 / cqm=0 / deadzone=21,11 / fast_pskip=0 / chroma_qp_offset=-3 / threads=12 / lookahead_threads=3 / sliced_threads=0 / nr=0 / decimate=1 / interlaced=0 / bluray_compat=0 / constrained_intra=0 / bframes=12 / b_pyramid=2 / b_adapt=2 / b_bias=0 / direct=3 / weightb=1 / open_gop=0 / weightp=2 / keyint=230 / keyint_min=23 / scenecut=40 / intra_refresh=0 / rc_lookahead=40 / rc=crf / mbtree=0 / crf=15.5 / qcomp=0.60 / qpmin=0 / qpmax=69 / qpstep=4 / vbv_maxrate=50000 / vbv_bufsize=62500 / crf_max=0.0 / nal_hrd=none / filler=0 / ip_ratio=1.40 / pb_ratio=1.30 / aq=3:0.80
Language                                 : English
Default                                  : Yes
Forced                                   : No

Audio #1
ID                                       : 2
Format                                   : AC-3
Format/Info                              : Audio Coding 3
Commercial name                          : Dolby Digital
Codec ID                                 : A_AC3
Duration                                 : 56 min 8 s
Bit rate mode                            : Constant
Bit rate                                 : 640 kb/s
Channel(s)                               : 6 channels
Channel layout                           : L R C LFE Ls Rs
Sampling rate                            : 48.0 kHz
Frame rate                               : 31.250 FPS (1536 SPF)
Bit depth                                : 16 bits
Compression mode                         : Lossy
Stream size                              : 257 MiB (8%)
Language                                 : Russian
Service kind                             : Complete Main
Default                                  : Yes
Forced                                   : No

Audio #2
ID                                       : 3
Format                                   : AC-3
Format/Info                              : Audio Coding 3
Commercial name                          : Dolby Digital
Codec ID                                 : A_AC3
Duration                                 : 56 min 8 s
Bit rate mode                            : Constant
Bit rate                                 : 640 kb/s
Channel(s)                               : 6 channels
Channel layout                           : L R C LFE Ls Rs
Sampling rate                            : 48.0 kHz
Frame rate                               : 31.250 FPS (1536 SPF)
Bit depth                                : 16 bits
Compression mode                         : Lossy
Stream size                              : 257 MiB (8%)
Language                                 : English
Service kind                             : Complete Main
Default                                  : No
Forced                                   : No

Text #1
ID                                       : 4
Format                                   : UTF-8
Codec ID                                 : S_TEXT/UTF8
Codec ID/Info                            : UTF-8 Plain Text
Duration                                 : 54 min 33 s
Bit rate                                 : 50 b/s
Count of elements                        : 628
Stream size                              : 20.0 KiB (0%)
Language                                 : English
Default                                  : No
Forced                                   : No

Text #2
ID                                       : 5
Format                                   : UTF-8
Codec ID                                 : S_TEXT/UTF8
Codec ID/Info                            : UTF-8 Plain Text
Duration                                 : 54 min 33 s
Bit rate                                 : 55 b/s
Count of elements                        : 723
Stream size                              : 22.1 KiB (0%)
Title                                    : SDH
Language                                 : English
Default                                  : No
Forced                                   : No

Menu
00:00:00.000                             : en:00:00:00.000
00:09:45.160                             : en:00:09:45.160
00:20:17.200                             : en:00:20:17.200
00:29:41.160                             : en:00:29:41.160
00:39:40.480                             : en:00:39:40.480
00:48:43.360                             : en:00:48:43.360
pb.wtf



Скачать МакМафия через торрент https://i106.fastpic.ru/big/2019/0104/ff/88c97c418e1f7b939f70a4854e3ec3ff.jpg Скачать фильм МакМафия через торрент бесплантно в хорошем качестве Описание: В центре истории — русская семья из Лондона, вовлечённая в криминальную деятельность международного масштаба: отмывание денег, ... 10 10 3
Торрент: Зарегистрирован [2019-03-20 01:58] · скачан: 10 раз
Статус: √ проверено
Размер: 24.11 GB
Как cкачать? Как скачать МакМафия через торрент | qTorrent

% Раздел Тема Автор DL S | L
Зарубежные сериалы [ 5.47 GB ] МакМафия / McMafia / Сезон: 1 / Серии: 1-8 из 8 [2018 HDRip] MVO [Good People] bober100 Скачать
1 | 0
Зарубежные сериалы [ 7.57 GB ] МакМафия / McMafia / Сезон: 1 / Серии: 1-8 из 8 [2018 BDRip] [MVO] killermax2013 Скачать
2 | 0
Зарубежные сериалы [ 13.75 GB ] МакМафия / McMafia / Сезон 1 / Серии 1-8 из 8 [2017 WEB-DLRip 720р] [MVO] killermax2013 Скачать
1 | 0
Зарубежные сериалы [ 15.1 GB ] МакМафия / McMafia / Сезон: 1 / Серии: 1-8 из 8 [2017 WEBRip 720p] MVO [Jaskier] bober100 Скачать
1 | 0
Зарубежные сериалы [ 25.41 GB ] МакМафия / McMafia / Сезон 1 / Серии 1-8 из 8 [2017 WEBRip 1080p] MVO [BaibaKo] bober100 Скачать
1 | 0
Зарубежные сериалы [ 23.64 GB ] МакМафия / McMafia / Сезон: 1 / Серии: 1-8 из 8 [2017 WEBRip 1080p] MVO [Jaskier] bober100 Скачать
1 | 0
Зарубежные сериалы [ 5.66 GB ] МакМафия / McMafia / Сезон: 1 / Серии: 1-8 из 8 [2017 WEBRip] MVO [Jaskier] bober100 Скачать
1 | 0

28-11-2019 20:33  

Отключить всю рекламу на сайте

    Дорогой пользователь! Огромная просьба, поблагодарите релизера, оцените раздачу и оставьте свои комментарий, если Вы скачали МакМафия через торрент бесплатно! Внесите свою лепту в развитие PiratBit!
    Комментировать посты могут только пользователи прошедшие не сложную регистрацию
    Показать сообщения:    

    МакМафия через торрент
    Скачать бесплатно МакМафия
    МакМафия скачать торрент
    МакМафия смотреть онлайн
    Cкачать фильм МакМафия бесплатно
    МакМафия скачать торрент в хорошем качестве
    МакМафия смотреть онлайн бесплатно в хорошем качестве


    Вы не можете начинать темы
    Вы не можете отвечать на сообщения
    Вы не можете редактировать свои сообщения
    Вы не можете удалять свои сообщения
    Вы не можете голосовать в опросах
    Вы не можете прикреплять файлы к сообщениям
    Вы можете скачивать файлы