Ссылка на приватное зеркало нашего сайта всего за 1$. Внимание количество ограничено!!!

2 сезон

iTunes

1 сезон

1

2 сезон

2 сезон

iTunes

1 сезон

RePack

30

Ultimate

ВАЖНО

ИГРА 18+

pack

RePack

MK11
pack

Забери бонус

RePack

jed

!!Акция!!

Alien_Rage

RePack

fifa19

RePack

Assassins Creed: Odyssey

RePack

NEED FOR SPEED™ PAYBACK

4 сезон

9 сезон

Бесстыжие 9 сезон

Все сериалы

все сериалы на PB.wtf

RePack

FAR CRY 5
  

Отверженные / Les Miserables / Сезон: 1 / Серии: 1-6 из 6 (Том Шенклэнд) [2019, драма, мелодрама, история, HDTVRip 1080p] MVO [TVShows] pb.wtf

Отверженные через торрент pb.wtf

Размер: 13.98 GB | Добавлен: 1 год 8 мес. назад | Торрент скачан:42 раза
Скачать  

20-03-2019 02:08 Отверженные Скачать торрент  

Отверженные / Les Miserables

Год выпуска: 2019
Страна: Великобритания, США
Жанр: драма, мелодрама, история
Продолжительность: ~ 00:55:00
Перевод: Профессиональный (многоголосый закадровый) | TVShows
Субтитры: отсутствуют

Режиссёр: Том Шенклэнд

В ролях:

Доминик Уэст, Лили Коллинз, Элли Бамбер, Дэвид Ойелоуо, Адиль Ахтар, Оливия Колман, Алекс Джарретт, Эрин Келлиман, Джош О’Коннор, Джозеф Куинн, Рис Йейтс

Описание:

Мини-сериал «Отверженные» — это очередная экранизация бессмертного романа Виктора Гюго о противостоянии бывшего каторжника Жана Вальжана и инспектора Жавера на фоне пост-наполеоновской Франции начала XIX века.

rating


Качество: HDTVRip 1080p
Формат: MKV

Видео: X264, ~ 7199 kbps, 1920х1080, 25 fps
Аудио 1: AC3, 48,0 КГц, 2 ch, 384 kbps - RUS
Аудио 2: AAC, 48,0 КГц, 2 ch, 196 kbps - ENG
General
Unique ID                   : 334964517363918203375603148108689491613 (0xFBFFD1C6276722674698C22BA7BEC69D)
Complete name               : C:\Users\вов\Desktop\Les.Miserables.2018.S01.1080p.TVShows\Les.Miserables.2018.S01E01.1080p.TVShows.mkv
Format                      : Matroska
Format version              : Version 4 / Version 2
File size                   : 3.23 GiB
Duration                    : 59 min 29 s
Overall bit rate            : 7 782 kb/s
Encoded date                : UTC 2019-01-19 16:42:37
Writing application         : mkvmerge v29.0.0 ('Like It Or Not') 64-bit
Writing library             : libebml v1.3.6 + libmatroska v1.4.9

Video
ID                          : 1
Format                      : AVC
Format/Info                 : Advanced Video Codec
Format profile              : High@L4.1
Format settings             : CABAC / 4 Ref Frames
Format settings, CABAC      : Yes
Format settings, ReFrames   : 4 frames
Codec ID                    : V_MPEG4/ISO/AVC
Duration                    : 59 min 29 s
Bit rate                    : 7 199 kb/s
Width                       : 1 920 pixels
Height                      : 1 080 pixels
Display aspect ratio        : 16:9
Frame rate mode             : Constant
Frame rate                  : 25.000 FPS
Color space                 : YUV
Chroma subsampling          : 4:2:0
Bit depth                   : 8 bits
Scan type                   : Progressive
Bits/(Pixel*Frame)          : 0.139
Stream size                 : 2.99 GiB (93%)
Writing library             : x264 core 157 r2935 545de2f
Encoding settings           : cabac=1 / ref=4 / deblock=1:0:0 / analyse=0x3:0x113 / me=hex / subme=8 / psy=1 / psy_rd=1.00:0.00 / mixed_ref=1 / me_range=16 / chroma_me=1 / trellis=2 / 8x8dct=1 / cqm=0 / deadzone=21,11 / fast_pskip=1 / chroma_qp_offset=-2 / threads=18 / lookahead_threads=3 / sliced_threads=0 / nr=0 / decimate=1 / interlaced=0 / bluray_compat=0 / constrained_intra=0 / bframes=3 / b_pyramid=2 / b_adapt=1 / b_bias=0 / direct=3 / weightb=1 / open_gop=0 / weightp=2 / keyint=250 / keyint_min=25 / scenecut=40 / intra_refresh=0 / rc_lookahead=50 / rc=crf / mbtree=1 / crf=17.0 / qcomp=0.60 / qpmin=0 / qpmax=69 / qpstep=4 / ip_ratio=1.40 / aq=1:1.00
Default                     : Yes
Forced                      : No
Color range                 : Limited
Color primaries             : BT.709
Transfer characteristics    : BT.709
Matrix coefficients         : BT.709

Audio #1
ID                          : 2
Format                      : AC-3
Format/Info                 : Audio Coding 3
Codec ID                    : A_AC3
Duration                    : 59 min 29 s
Bit rate mode               : Constant
Bit rate                    : 384 kb/s
Channel(s)                  : 2 channels
Channel positions           : Front: L R
Sampling rate               : 48.0 kHz
Frame rate                  : 31.250 FPS (1536 SPF)
Bit depth                   : 16 bits
Compression mode            : Lossy
Stream size                 : 163 MiB (5%)
Title                       : TVShows
Language                    : Russian
Service kind                : Complete Main
Default                     : Yes
Forced                      : Yes

Audio #2
ID                          : 3
Format                      : AAC
Format/Info                 : Advanced Audio Codec
Format profile              : LC
Codec ID                    : A_AAC-2
Duration                    : 59 min 29 s
Bit rate                    : 196 kb/s
Channel(s)                  : 2 channels
Channel positions           : Front: L R
Sampling rate               : 48.0 kHz
Frame rate                  : 46.875 FPS (1024 SPF)
Compression mode            : Lossy
Stream size                 : 83.5 MiB (3%)
Title                       : Original
Language                    : English
Default                     : No
Forced                      : No
Когда раздача ведётся путём добавления новых серий, при каждом добавлении создётся новый торрент. Чтобы начать докачку новой серии, пользователям необходимо сделать следующее:
(1) остановить скачивание,
(2) удалить старый торрент у себя из клиента (старые серии удалять не надо),
(3) скачать новый торрент и запустить его у себя в клиенте вместо старого, при этом указать клиенту путь в старую папку, куда и должно происходить скачивание новых серий.
Ваш клиент при этом должен произвести хеширование (проверку) старой папки (если не производит сам - помогите ему сделать это), и будет докачивать только те серии, которых у вас ещё нет. Старые серии при этом не удаляются, а продолжают раздаваться!
Eсли вы уже удалили старые серии, то предотвратить повторную закачку старых серий можно, отжав галочку в соответсвующих местах при запуске нового торрента. По возможности, желательно не удалять старые серии как можно дольше, чтобы релизёр не столько продолжал раздавать старые серии, а смог сконцентрироваться на новых.
pb.wtf



Скачать Отверженные через торрент https://i110.fastpic.ru/big/2019/0121/fe/5188825065f55e3189b49eebb6d333fe.png Скачать фильм Отверженные через торрент бесплантно в хорошем качестве Описание: Мини-сериал «Отверженные» — это очередная экранизация бессмертного романа Виктора Гюго о противостоянии бывшего каторжника Жана ... 6.7 10 6
Торрент: Зарегистрирован [2019-03-20 02:08] · скачан: 42 раз
Статус: √ проверено
Размер: 13.98 GB
Как cкачать? Как скачать Отверженные через торрент | qTorrent

% Раздел Тема Автор DL S | L
Зарубежные сериалы [ 24.35 GB ] Отверженные / Les Misérables / Les Miserables / Сезон: 1 / Серии: 1-6 из 6 [2018-2019 история WEB-DL 1080p] MVO [LostFilm] bober100 Скачать
1 | 0

28-11-2019 20:33  

Отключить всю рекламу на сайте

20-03-2019 12:26 Отверженные Скачать торрент  

а негр там откуда вообще ?pb.wtf



20-03-2019 12:27 Отверженные Скачать торрент  

Самая лучшая версия "Отверженные" - это где Жан Габен в главной роли . Ну ничё так ещё с Депардье . Остальное - шлак .pb.wtf



    Дорогой пользователь! Огромная просьба, поблагодарите релизера, оцените раздачу и оставьте свои комментарий, если Вы скачали Отверженные через торрент бесплатно! Внесите свою лепту в развитие PiratBit!
    Комментировать посты могут только пользователи прошедшие не сложную регистрацию
    Показать сообщения:    

    Отверженные через торрент
    Скачать бесплатно Отверженные
    Отверженные скачать торрент
    Отверженные смотреть онлайн
    Cкачать фильм Отверженные бесплатно
    Отверженные скачать торрент в хорошем качестве
    Отверженные смотреть онлайн бесплатно в хорошем качестве


    Вы не можете начинать темы
    Вы не можете отвечать на сообщения
    Вы не можете редактировать свои сообщения
    Вы не можете удалять свои сообщения
    Вы не можете голосовать в опросах
    Вы не можете прикреплять файлы к сообщениям
    Вы можете скачивать файлы