новый адрес
Ссылка на приватное зеркало всего за 1$. Внимание количество ограничено!!!

iTunes

1+1

iTunes

мы

iTunes

1

iTunes

Чернобыль

iTunes

Ральф против интернета

Лицензия

ПШазам

Лицензия

Оно 2

Лицензия

30
pack

Вам бонус

ВАЖНО

!!Акция!!

Alien_RageХит недели

RePack

Resident Evil 21

ИГРА 18+

pack

RePack

jed

!!Акция!!

Alien_Rage

RePack

fifa19

RePack

Assassins Creed: Odyssey

RePack

NEED FOR SPEED™ PAYBACK

3 сезон

9 сезон

Бесстыжие 9 сезон

Все сериалы

все сериалы на PB.wtf

RePack

FAR CRY 5
Ребята, катастрофически не хватает 1900р. для оплаты серверов за Октябрь (всвязи с блокировками трафик упал в 3 раза), 1-2р., выручайте.
  

Бамблби / Bumblebee (Трэвис Найт) [2018, фантастика, боевик, приключения, WEB-DLRip-AVC] 2xMVO [СВ Студия, HDRezka Studio] pb.wtf

Бамблби через торрент pb.wtf

Раздают: 4 [ 0 KB/s ]
Размер: 2.2 GB | Добавлен: 8 мес. назад | Торрент скачан:512 раз
Скачать  

20-03-2019 03:07 Бамблби Скачать торрент  

Бамблби / Bumblebee
Год выпуска: 2018
Страна: США
Жанр: фантастика, боевик, приключения
Продолжительность: 01:54:21
Перевод:

Профессиональный (многоголосый, закадровый) | СВ Студия
Профессиональный (многоголосый, закадровый) | HDRezka Studio

Субтитры: Английские (полные, SDH)

Режиссер: Трэвис Найт

rating


В ролях:

Дилан О Брайен, Хейли Стайнфелд, Джастин Теру, Джон Сина, Анджела Бассетт, Памела Адлон, Мегин Прайс, Грэй ДеЛисл, Питер Каллен, Кеннет Чои

Описание:

1987 год. Скрываясь от преследования, Бамблби находит убежище на автомобильной свалке в калифорнийском городке, где живет Чарли. Девушке скоро исполнится 18, она стремится найти свое место в жизни. И именно она наталкивается на покореженного и сломленного Бамблби. Приведя его в чувство, Чарли моментально осознает: на ее пути оказался не простой желтый Фольксваген Жук….

Качество: WEB-DLRip-AVC
Формат: MKV

Видео: 1024x428 (2.40:1), 23,976 fps, x264 ~1 794 kbps avg, 0.171 bit/pixel
Аудио#1: 48 kHz, AC3 Dolby Digital, 2 (L,R) ch, ~192.00 kbps avg | RUS (СВ-Студия)
Аудио#2: 48 kHz, AC3 Dolby Digital, 2 (L,R) ch, ~192.00 kbps avg | RUS (HDRezka Studio)
Аудио#3: 48 kHz, AC3 Dolby Digital, 3/2 (L,C,R,l,r) + LFE ch, ~384.00 kbps avg | ENG
скриншот  скриншот  скриншот  скриншот  

Общее
Уникальный идентификатор : 207532745190164707506660519934306415899 (0x9C215A53BD4BD9C566C84ECBB6EDF51B)
Полное имя : F:OlLanDGroupBumblebee.2018.WEB-DLRip(AVC).OlLanDGroup.mkv
Формат : Matroska
Версия формата : Version 4 / Version 2
Размер файла : 2,20 Гбайт
Продолжительность : 1 ч. 54 м.
Общий поток : 2754 Кбит/сек
Название фильма : Bumblebee 2018 #TorpedoUK#
Дата кодирования : UTC 2019-03-20 02:19:46
Программа кодирования : mkvmerge v29.0.0 ('Like It Or Not') 64-bit
Библиотека кодирования : libebml v1.3.6 + libmatroska v1.4.9

Видео
Идентификатор : 1
Формат : AVC
Формат/Информация : Advanced Video Codec
Профиль формата : High@L4.1
Параметр CABAC формата : Да
Параметр ReFrames формата : 10 кадров
Идентификатор кодека : V_MPEG4/ISO/AVC
Продолжительность : 1 ч. 54 м.
Битрейт : 1988 Кбит/сек
Ширина : 1024 пикселя
Высота : 576 пикселей
Соотношение сторон : 16:9
Режим частоты кадров : Постоянный
Частота кадров : 23,976 (24000/1001) кадра/сек
Цветовое пространство : YUV
Субдискретизация насыщенности : 4:2:0
Битовая глубина : 8 бит
Тип развёртки : Прогрессивная
Бит/(Пиксели*Кадры) : 0.141
Размер потока : 1,59 Гбайт (72%)
Библиотека кодирования : x264 core 146 r2538 121396c
Настройки программы : cabac=1 / ref=10 / deblock=1:-3:-3 / analyse=0x3:0x113 / me=umh / subme=10 / psy=1 / psy_rd=0.97:0.05 / mixed_ref=1 / me_range=48 / chroma_me=1 / trellis=2 / 8x8dct=1 / cqm=0 / deadzone=21,11 / fast_pskip=1 / chroma_qp_offset=-3 / threads=6 / lookahead_threads=1 / sliced_threads=0 / nr=0 / decimate=1 / interlaced=0 / bluray_compat=0 / constrained_intra=0 / bframes=11 / b_pyramid=2 / b_adapt=2 / b_bias=0 / direct=3 / weightb=1 / open_gop=0 / weightp=2 / keyint=240 / keyint_min=23 / scenecut=40 / intra_refresh=0 / rc_lookahead=40 / rc=2pass / mbtree=0 / bitrate=1988 / ratetol=1.0 / qcomp=0.60 / qpmin=0 / qpmax=69 / qpstep=4 / cplxblur=20.0 / qblur=0.5 / vbv_maxrate=50000 / vbv_bufsize=62500 / nal_hrd=none / filler=0 / ip_ratio=1.40 / pb_ratio=1.30 / aq=1:1.00
Язык : English
Default : Да
Forced : Нет

Аудио #1
Идентификатор : 2
Формат : AC-3
Формат/Информация : Audio Coding 3
Расширение режима : CM (complete main)
Параметр Endianness формата : Big
Идентификатор кодека : A_AC3
Продолжительность : 1 ч. 53 м.
Вид битрейта : Постоянный
Битрейт : 192 Кбит/сек
Каналы : 2 канала
Расположение каналов : Front: L R
Частота : 48,0 КГц
Частота кадров : 31,250 кадров/сек (1536 spf)
Битовая глубина : 16 бит
Метод сжатия : С потерями
Размер потока : 156 Мбайт (7%)
Заголовок : MVO [СВ студия]
Язык : Russian
Default : Да
Forced : Нет

Аудио #2
Идентификатор : 3
Формат : AC-3
Формат/Информация : Audio Coding 3
Расширение режима : CM (complete main)
Параметр Endianness формата : Big
Идентификатор кодека : A_AC3
Продолжительность : 1 ч. 53 м.
Вид битрейта : Постоянный
Битрейт : 192 Кбит/сек
Каналы : 2 канала
Расположение каналов : Front: L R
Частота : 48,0 КГц
Частота кадров : 31,250 кадров/сек (1536 spf)
Битовая глубина : 16 бит
Метод сжатия : С потерями
Размер потока : 156 Мбайт (7%)
Заголовок : MVO [HDRezka Studio]
Язык : Russian
Default : Нет
Forced : Нет

Аудио #3
Идентификатор : 4
Формат : AC-3
Формат/Информация : Audio Coding 3
Расширение режима : CM (complete main)
Параметр Endianness формата : Big
Идентификатор кодека : A_AC3
Продолжительность : 1 ч. 53 м.
Вид битрейта : Постоянный
Битрейт : 384 Кбит/сек
Каналы : 6 каналов
Расположение каналов : Front: L C R, Side: L R, LFE
Частота : 48,0 КГц
Частота кадров : 31,250 кадров/сек (1536 spf)
Битовая глубина : 16 бит
Метод сжатия : С потерями
Размер потока : 313 Мбайт (14%)
Заголовок : [Original]
Язык : English
Default : Нет
Forced : Нет

Текст
Идентификатор : 5
Формат : UTF-8
Идентификатор кодека : S_TEXT/UTF8
Идентификатор кодека/Информация : UTF-8 Plain Text
Продолжительность : 1 ч. 48 м.
Битрейт : 45 бит/сек
Count of elements : 1270
Размер потока : 36,3 Кбайт (0%)
Заголовок : Full
Язык : English
Default : Нет
Forced : Нет

Меню
00:00:00.000 : en:Chapter 1
00:03:29.000 : en:Chapter 2
00:12:14.000 : en:Chapter 3
00:16:54.000 : en:Chapter 4
00:21:00.000 : en:Chapter 5
00:26:40.000 : en:Chapter 6
00:32:30.000 : en:Chapter 7
00:39:40.000 : en:Chapter 8
00:45:15.000 : en:Chapter 9
00:50:39.000 : en:Chapter 10
00:54:12.000 : en:Chapter 11
01:01:06.000 : en:Chapter 12
01:06:22.000 : en:Chapter 13
01:11:34.000 : en:Chapter 14
01:16:02.000 : en:Chapter 15
01:21:31.000 : en:Chapter 16
01:25:02.000 : en:Chapter 17
01:30:09.000 : en:Chapter 18
01:36:40.000 : en:Chapter 19
01:43:45.000 : en:Chapter 20
01:49:35.000 : en:Chapter 21

pb.wtf



Скачать Бамблби через торрент https://i2.imageban.ru/out/2019/01/22/5c1f99203552ec31a8748a803e486411.png Скачать фильм Бамблби через торрент бесплантно в хорошем качестве Описание: 1987 год. Скрываясь от преследования, Бамблби находит убежище на автомобильной свалке в калифорнийском городке, где живет Чарли. ... 9.9 10 15
Торрент: Зарегистрирован [2019-03-20 03:07] · скачан: 512 раз
Статус: T временная
Размер: 2.2 GB
Как cкачать? Как скачать Бамблби через торрент | qTorrent

% Раздел Тема Автор DL S | L
Фильмы (Blu-ray, BD-Remux, HDDVD) [ 26.5 GB ] Бамблби / Bumblebee [2018 BDRemux 1080p] DUB [] + 2xMVO [СВ Студия HDRezka Studio] sheker187 Скачать
1 | 0
Фильмы (WEB-DL 720p, 1080p) [ 8.47 GB ] Бамблби / Bumblebee [2018 BDRip 1080p] [] + 2x[MVO] killermax2013 Скачать
5 | 0
Фильмы 2018 [DVDrip, WEB-DLRip, HDrip] (DUB, MVO) [ 1.46 GB ] Бамблби / Bumblebee [2018 BDRip] - [] Twi7ter Скачать
18 | 0
Фильмы 2018 [DVDrip, WEB-DLRip, HDrip] (DUB, MVO) [ 2.19 GB ] Бамблби / Bumblebee [2018 BDRip] - [] Twi7ter Скачать
6 | 0
Фильмы [HD 720p, 1080p] (Хороший звук DUB, MVO) [ 8.21 GB ] Бамблби / Bumblebee [2018 BDRip 720p] DUB [] + 2xMVO [СВ Студия HDRezka Studio] sheker187 Скачать
3 | 0
Ultra HD (UHD: 2K, 4K, 8K) — видео сверхвысокой чёткости [ 33.48 GB ] Бамблби / Bumblebee [2018 UHD BDRip 2160p] [SDR] DUB [] + 2xMVO [СВ Студия HDRezka Studio] sheker187 Скачать
3 | 1
Ultra HD (UHD: 2K, 4K, 8K) — видео сверхвысокой чёткости [ 52.64 GB ] Бамблби / Bumblebee [2018 UHD BDRemux 2160p] DUB [] [Dolby Vision] sheker187 Скачать
2 | 0
Отключить всю рекламу на сайте
    Дорогой пользователь! Огромная просьба, поблагодарите релизера, оцените раздачу и оставьте свои комментарий, если Вы скачали Бамблби через торрент бесплатно! Внесите свою лепту в развитие PiratBit!
    Комментировать посты могут только пользователи прошедшие не сложную регистрацию
    Показать сообщения:    

    Бамблби через торрент
    Скачать бесплатно Бамблби
    Бамблби скачать торрент
    Бамблби смотреть онлайн
    Cкачать фильм Бамблби бесплатно
    Бамблби скачать торрент в хорошем качестве
    Бамблби смотреть онлайн бесплатно в хорошем качестве


    Вы не можете начинать темы
    Вы не можете отвечать на сообщения
    Вы не можете редактировать свои сообщения
    Вы не можете удалять свои сообщения
    Вы не можете голосовать в опросах
    Вы не можете прикреплять файлы к сообщениям
    Вы можете скачивать файлы