Ссылка на приватное зеркало нашего сайта всего за 1$. Внимание количество ограничено!!!

2 сезон

iTunes

1 сезон

1

2 сезон

2 сезон

iTunes

1 сезон

RePack

30

Ultimate

ВАЖНО

ИГРА 18+

pack

RePack

MK11
pack

Забери бонус

RePack

jed

!!Акция!!

Alien_Rage

RePack

fifa19

RePack

Assassins Creed: Odyssey

RePack

NEED FOR SPEED™ PAYBACK

4 сезон

9 сезон

Бесстыжие 9 сезон

Все сериалы

все сериалы на PB.wtf

RePack

FAR CRY 5
  

Уэйн / Wayne / Сезон: 1 / Серии: 1-10 из 10 (Стив Пинк, Тесса Хофф) [2019, боевик, комедия, WEBRip] MVO [NewStudio] pb.wtf

Уэйн через торрент pb.wtf

Размер: 4.11 GB | Добавлен: 1 год 8 мес. назад | Торрент скачан:92 раза
Скачать  

20-03-2019 06:04 Уэйн Скачать торрент  

Уэйн / Wayne

Год выпуска: 2019
Страна: США
Жанр: боевик, комедия
Продолжительность: ~ 00:35:00
Перевод: Профессиональный (многоголосый закадровый) | NewStudio
Субтитры: Russian (Full), English (SDH) (внешние, .srt)

Режиссёр: Стив Пинк, Тесса Хофф, Майкл Патрик Джэнн

В ролях:

Сиэра Браво, Марк МакКенна, Джеймс Эрл, Стивен Кеарин, Дин Уинтерс, Майк О’Мэлли, Джошуа Дж. Уильямс

Описание:

16-летний Уэйн вместе с подругой отправляется на мотоцикле из Бостона во Флориду, чтобы вернуть старенький Понтиак своего отца, который был украден до его смерти.

rating


Качество: WEBRip
Формат: AVI

Видео: 704x352 at 23.976 fps, XviD, ~1500 kbps avg
Аудио 1: Russian: 48 kHz, MP3, 2/0 (L,R) ch, ~128 kbps avg |Многоголосый закадровый, NewStudio|
Аудио 2: English: 48 kHz, MP3, 2/0 (L,R) ch, ~128 kbps avg/b]
01. Глава первая: Так достань деньги / Chapter One: Get Some Then
02. Глава вторая: Без священника / Chapter Two: No Priests
03. Глава третья: Не умеешь ты врать / Chapter Three: The Goddamned Beacon of Truth
04. Глава четыре: Достать что-нибудь чёрное / Chapter Four: Find Something Black to Wear
05. Глава пятая: Дел / Chapter Five: Del
06. Глава шестая: Кто мы вообще теперь? / Chapter Six: Who Even Are We Now?
07. Глава седьмая: Это навечно / Chapter Seven: It'll Last Forever
08. Глава восьмая: Наверное, ужасно щипало / Chapter Eight: Musta Burned Like Hell
09. Глава девятая: Я думаю, мы друзья / Chapter Nine: Thought We Was Friends
10. Глава десятая: Пристегнись, б**** / Chapter Ten: Buckle the F**k Up

скриншот  скриншот  скриншот  

скриншот  скриншот  скриншот  

Общее
Полное имя : D:\Wayne_(s01)_NewStudio_[rutor.info]\Wayne.s01e01.avi
Формат : AVI
Формат/Информация : Audio Video Interleave
Размер файла : 450 Мбайт
Продолжительность : 35 м. 11 с.
Общий поток : 1790 Кбит/сек
Программа кодирования : VirtualDubMod 1.5.10.3 (build 2550/release)
Библиотека кодирования : VirtualDubMod build 2550/release

Видео
Идентификатор : 0
Формат : MPEG-4 Visual
Профиль формата : Advanced Simple@L5
Параметр BVOP формата : 1
Параметр QPel формата : Нет
Параметр GMC формата : Без точки перехода
Параметр матрицы формата : Выборочная
Идентификатор кодека : XVID
Идентификатор кодека/Подсказка : XviD
Продолжительность : 35 м. 11 с.
Битрейт : 1520 Кбит/сек
Ширина : 704 пикселя
Высота : 352 пикселя
Соотношение сторон : 2,000
Частота кадров : 23,976 (24000/1001) кадра/сек
Цветовое пространство : YUV
Субдискретизация насыщенности : 4:2:0
Битовая глубина : 8 бит
Тип развёртки : Прогрессивная
Метод сжатия : С потерями
Бит/(Пиксели*Кадры) : 0.256
Размер потока : 382 Мбайт (85%)
Библиотека кодирования : XviD 73

Аудио #1
Идентификатор : 1
Формат : MPEG Audio
Версия формата : Version 1
Профиль формата : Layer 3
Режим : Joint stereo
Идентификатор кодека : 55
Идентификатор кодека/Подсказка : MP3
Продолжительность : 35 м. 11 с.
Вид битрейта : Постоянный
Битрейт : 128 Кбит/сек
Каналы : 2 канала
Частота : 48,0 КГц
Метод сжатия : С потерями
Размер потока : 32,2 Мбайт (7%)
Выравнивание : Соединение по промежуткам
Продолжительность промежутка : 42 мс. (1,00 видеокадр)
Время предзагрузки промежутка : 504 мс.

Аудио #2
Идентификатор : 2
Формат : MPEG Audio
Версия формата : Version 1
Профиль формата : Layer 3
Режим : Joint stereo
Идентификатор кодека : 55
Идентификатор кодека/Подсказка : MP3
Продолжительность : 35 м. 11 с.
Вид битрейта : Постоянный
Битрейт : 128 Кбит/сек
Каналы : 2 канала
Частота : 48,0 КГц
Метод сжатия : С потерями
Размер потока : 32,2 Мбайт (7%)
Выравнивание : Соединение по промежуткам
Продолжительность промежутка : 42 мс. (1,00 видеокадр)
Время предзагрузки промежутка : 504 мс.

pb.wtf



Скачать Уэйн через торрент http://pic1.kartinco.top/images/12/v61m1.jpg Скачать фильм Уэйн через торрент бесплантно в хорошем качестве Описание: 16-летний Уэйн вместе с подругой отправляется на мотоцикле из Бостона во Флориду, чтобы вернуть старенький Понтиак своего отца, ... 10 10 2
Торрент: Зарегистрирован [2019-03-20 06:04] · скачан: 92 раз
Статус: √ проверено
Размер: 4.11 GB
Как cкачать? Как скачать Уэйн через торрент | qTorrent

% Раздел Тема Автор DL S | L
Зарубежные сериалы [ 4.91 GB ] Уэйн / Wayne / Сезон: 1 / Серии 1-10 из 10 [2019 WEB-DL 720] [DVO] killermax2013 Скачать
3 | 0
Зарубежные сериалы [ 29.55 GB ] Уэйн / Wayne / Сезон: 1 / Серии 1-10 из 10 [2019 WEB-DL 2160p] [DVO] killermax2013 Скачать
2 | 0
Зарубежные сериалы [ 29.56 GB ] Уэйн / Wayne / Сезон: 1 / Серии: 1-10 из 10 [2019 UHD WEBRip 2160p] MVO [Good People] bober100 Скачать
1 | 0
Зарубежные сериалы [ 4.91 GB ] Уэйн / Wayne / Сезон: 1 / Серии: 1-10 из 10 [2019 WEB-DL 720p] MVO [Jaskier] bober100 Скачать
1 | 0
Зарубежные сериалы [ 3.9 GB ] Уэйн / Wayne / Сезон: 1 / Серии: 1-10 из 10 [2019 WEB-DLRip] MVO bober100 Скачать
1 | 0
Зарубежные сериалы [ 4.11 GB ] Уэйн / Wayne / Сезон: 1 / Серии: 1-10 из 10 [2019 WEB-DLRip] MVO [Good People] bober100 Скачать
1 | 0
Зарубежные сериалы [ 2.49 GB ] Уэйн / Wayne / Сезон: 1 / Серии 1-10 из 10 [2019 WEBRip-AVC] [MVO] killermax2013 Скачать
1 | 0

28-11-2019 20:33  

Отключить всю рекламу на сайте

    Дорогой пользователь! Огромная просьба, поблагодарите релизера, оцените раздачу и оставьте свои комментарий, если Вы скачали Уэйн через торрент бесплатно! Внесите свою лепту в развитие PiratBit!
    Комментировать посты могут только пользователи прошедшие не сложную регистрацию
    Показать сообщения:    

    Уэйн через торрент
    Скачать бесплатно Уэйн
    Уэйн скачать торрент
    Уэйн смотреть онлайн
    Cкачать фильм Уэйн бесплатно
    Уэйн скачать торрент в хорошем качестве
    Уэйн смотреть онлайн бесплатно в хорошем качестве


    Вы не можете начинать темы
    Вы не можете отвечать на сообщения
    Вы не можете редактировать свои сообщения
    Вы не можете удалять свои сообщения
    Вы не можете голосовать в опросах
    Вы не можете прикреплять файлы к сообщениям
    Вы можете скачивать файлы