2 сезон

iTunes

WEBRip

1

2 сезон

iTunes

1 сезон

1 сезон

RePack

30

Новинка

ВАЖНО

ИГРА 18+

pack

RePack

MK11
pack

Легкие деньги

RePack

jed

RePack

fifa19

RePack

RDR2

RePack

NEED FOR SPEED™ PAYBACK

4 сезон

9 сезон

Бесстыжие 9 сезон

Все сериалы

все сериалы на PB.wtf

RePack

FAR CRY 5

Anonymous, доброй ночи, мы не успеваем собрать деньги на оплату серверов за февраль, помогите нам пожалуйста в это трудное время. В качестве благодарности мы отключим Вам всю рекламу на сайте (укажите свой ник в строку Ваше имя)!

×
  
Magnet ссылка

Все остается людям (Георгий Натансон) [1963, СССР, драма, DVDRip-AVC от AVP Studio] pb.wtf

Все остается людям через торрент pb.wtf

Размер: 1.09 GB | Добавлен: 1 год 11 мес. назад | Торрент скачан:5 раз
Скачать  

20-03-2019 07:16 Все остается людям Скачать торрент  

Все остается людям
Страна: СССР
Производство: Ленфильм

Жанр: драма
Год выпуска: 1963
Продолжительность: 01:36:50

Перевод: Не требуется
Cубтитры: нет
Оригинальная аудиодорожка: русский

Режиссер: Георгий Натансон

В ролях:
Николай Черкасов, Софья Пилявская, Андрей Попов, Элина Быстрицкая, Игорь Озеров, Игорь Горбачёв, Галина Анисимова, Яков Малютин, Антонина Павлычева, Вера Кузнецова, Ефим Копелян, Борис Рыжухин, Павел Панков...
Об актёрах подробней

Описание:
Экранизация одноименной пьесы Самуила Алёшина.
Известный ученый Дронов работает в Новосибирске над созданием суперсовременного двигателя. У него очень больное сердце, он боится не успеть довести дело до конца, а испытание двигателя на заводе в Москве, как назло, уже не в первый раз проходит неудачно. Дронов отказывается от всей остальной работы, даже перепоручает руководство институтом своему ученику Морозову...

Источник: DVD5 R5
Качество видео: DVDRip-AVC
Формат видео: MKV

Видео: 688->737х546 (4:3), 25,000 fps, H264 ~ 1413 kbps avg, 0.150 bit/pixel
Аудио: 48 kHz, Dolby Digital AC3 2.0, 192 kbps

Раздача от:
Общее
Полное имя : Vse.ostaetsya.lyudyam.1963.DVDRip-AVC_[New-team]_by_AVP_Studio.mkv
Формат : Matroska
Версия формата : Version 2
Размер файла : 1,09 Гбайт
Продолжительность : 1 ч. 36 м.
Общий поток : 1606 Кбит/сек
Дата кодирования : UTC 2019-03-18 14:19:00
Программа кодирования : mkvmerge v6.1.0 ('Old Devil') built on Mar 4 2013 09:10:42
Библиотека кодирования : libebml v1.3.0 + libmatroska v1.4.0

Видео
Идентификатор : 1
Формат : AVC
Формат/Информация : Advanced Video Codec
Профиль формата : High@L4.1
Настройки формата : CABAC / 10 Ref Frames
Параметр CABAC формата : Да
Параметр RefFrames формата : 10 кадров
Идентификатор кодека : V_MPEG4/ISO/AVC
Продолжительность : 1 ч. 36 м.
Битрейт : 1413 Кбит/сек
Ширина : 688 пикселей
Высота : 546 пикселей
Соотношение сторон : 4:3
Режим частоты кадров : Постоянный
Частота кадров : 25,000 кадров/сек
Цветовое пространство : YUV
Субдискретизация насыщенности : 4:2:0
Битовая глубина : 8 бит
Тип развёртки : Прогрессивная
Бит/(Пиксели*Кадры) : 0.150
Размер потока : 957 Мбайт (86%)
Библиотека кодирования : x264 core 157 r2935 545de2f
Настройки программы : cabac=1 / ref=10 / deblock=1:-2:-1 / analyse=0x3:0x113 / me=umh / subme=10 / psy=1 / psy_rd=1.00:0.00 / mixed_ref=1 / me_range=32 / chroma_me=1 / trellis=2 / 8x8dct=1 / cqm=0 / deadzone=21,11 / fast_pskip=1 / chroma_qp_offset=-2 / threads=6 / lookahead_threads=1 / sliced_threads=0 / nr=0 / decimate=0 / interlaced=0 / bluray_compat=0 / constrained_intra=0 / bframes=8 / b_pyramid=2 / b_adapt=2 / b_bias=0 / direct=3 / weightb=1 / open_gop=0 / weightp=2 / keyint=250 / keyint_min=25 / scenecut=40 / intra_refresh=0 / rc=2pass / mbtree=0 / bitrate=1413 / ratetol=1.0 / qcomp=0.60 / qpmin=0 / qpmax=69 / qpstep=4 / cplxblur=20.0 / qblur=0.5 / ip_ratio=1.40 / pb_ratio=1.30 / aq=1:1.00
Default : Да
Forced : Нет

Аудио
Идентификатор : 2
Формат : AC-3
Формат/Информация : Audio Coding 3
Коммерческое название : Dolby Digital
Идентификатор кодека : A_AC3
Продолжительность : 1 ч. 36 м.
Вид битрейта : Постоянный
Битрейт : 192 Кбит/сек
Каналы : 2 канала
Channel layout : L R
Частота : 48,0 КГц
Частота кадров : 31,250 кадров/сек (1536 SPF)
Битовая глубина : 16 бит
Метод сжатия : С потерями
Размер потока : 133 Мбайт (12%)
Default : Да
Forced : Нет
pb.wtf



Скачать Все остается людям через торрент http://picplus.ru/img/1903/20/6c6918b1.png Скачать фильм Все остается людям через торрент бесплантно в хорошем качестве Описание:Экранизация одноименной пьесы Самуила Алёшина.Известный ученый Дронов работает в Новосибирске над созданием суперсовременного ... 10 10 1
Info! Золотая раздача, скачанное не засчитывается.
Торрент: Зарегистрирован [2019-03-20 07:16] · скачан: 5 раз
Статус: √ проверено
Размер: 1.09 GB
Как cкачать? Как скачать Все остается людям через торрент | UTorrent

% Раздел Тема Автор DL S | L
Кино СССР [ 1.09 GB ] Все остается людям [1963 СССР DVDRip от AVP Studio] AVP Studio Скачать
1 | 0

28-11-2019 20:33  

Отключить всю рекламу на сайте

    Дорогой пользователь! Огромная просьба, поблагодарите релизера, оцените раздачу и оставьте свои комментарий, если Вы скачали Все остается людям через торрент бесплатно! Внесите свою лепту в развитие PiratBit!
    Комментировать посты могут только пользователи прошедшие не сложную регистрацию
    Показать сообщения:    

    Все остается людям через торрент
    Скачать бесплатно Все остается людям
    Все остается людям скачать торрент
    Все остается людям смотреть онлайн
    Cкачать фильм Все остается людям бесплатно
    Все остается людям скачать торрент в хорошем качестве
    Все остается людям смотреть онлайн бесплатно в хорошем качестве


    Вы не можете начинать темы
    Вы не можете отвечать на сообщения
    Вы не можете редактировать свои сообщения
    Вы не можете удалять свои сообщения
    Вы не можете голосовать в опросах
    Вы не можете прикреплять файлы к сообщениям
    Вы можете скачивать файлы