новый адрес
Мега распродажа FORZA HORIZON 4 ULTIMATE+ВСЕ DLC+ОНЛАЙН всего за 499р. 349 руб. (супер цена). Внимание количество ограничено!!!

iTunes

1+1

iTunes

мы

iTunes

1

iTunes

Чернобыль

iTunes

Ральф против интернета

Лицензия

ПШазам

Лицензия

Игра престолов

Лицензия

30
pack

ВАЖНО

!!Акция!!

Alien_RageХит недели

RePack

Resident Evil 21

ИГРА 18+

pack

RePack

Metro:Exodus

!!Акция!!

Alien_Rage

RePack

fifa19

RePack

Assassins Creed: Odyssey

RePack

NEED FOR SPEED™ PAYBACK

3 сезон

9 сезон

Бесстыжие 9 сезон

Все сериалы

все сериалы на PB.wtf

RePack

FAR CRY 5
Ребята, катастрофически не хватает 1900р. для оплаты серверов за Октябрь (всвязи с блокировками трафик упал в 3 раза), 1-2р., выручайте.
  

Тобол (Игорь Зайцев) [2019, История, драма, WEB-DLRip] [iTunes] pb.wtf

Тобол через торрент pb.wtf

Раздают: 4 [ 0 KB/s ]
Размер: 1.46 GB | Добавлен: 7 мес. назад | Торрент скачан:1255 раз
Скачать  

20-03-2019 20:15 Тобол Скачать торрент  

ТоболГод выпуска: 2019
Страна: Россия
Жанр: История, драма
Продолжительность: 01:48:01
Перевод: Не требуется | iTunes
Субтитры: отсутствуют

Режиссер: Игорь Зайцев

rating

В ролях:

Илья Маланин, Дмитрий Назаров, Дмитрий Дюжев, Евгений Дятлов, Агата Муцениеце, Александр Лазарев мл., Андрей Бурковский, Юлия Макарова, Павел Табаков, Еркебулан Даиров и др.

Описание:

Молодой офицер новой гвардии Петра I Иван Демарин по заданию царя отправляется в глубину Сибири — в пограничный Тобольск. Здесь Иван встречает свою первую любовь и вместе со своим полком оказывается втянутым в заговор местных князей, охотящихся за золотом Яркенда. Его крепость окружена полчищами диких джунгар и помощи ждать неоткуда…

Качество: WEB-DLRip
Формат: AVI

Видео: Xvid 73, 720x304, ~1535 kbps, 24,000 fps
Аудио: русский, AC3, 5.1 ch, 48 kHz, 384 kbps | iTunes
скриншот   скриншот   скриншот   скриншот   скриншот  

General
Полное имя : E:TorrentTobolWEBDLRip.avi
Формат : AVI
Формат/Информация : Audio Video Interleave
Профиль формата : OpenDML
Размер файла : 1.46 GiB
Продолжительность : 1 h 48 min
Общий поток : 1 931 kb/s
Программа кодирования : XviD4PSP 6.0 / 54.27.101

Video
Идентификатор : 0
Формат : MPEG-4 Visual
Профиль формата : Advanced Simple@L5
Настройки формата : BVOP2 / Custom Matrix
Параметр BVOP формата : 2
Параметр QPel формата : No
Параметр GMC формата : No warppoints
Параметр матрицы формата : Custom
Идентификатор кодека : XVID
Идентификатор кодека/Подсказка : XviD
Продолжительность : 1 h 48 min
Битрейт : 1 535 kb/s
Ширина : 720 pixels
Высота : 304 pixels
Соотношение сторон : 2.35:1
Частота кадров : 24.000 FPS
Цветовое пространство : YUV
Субдискретизация насыщенности : 4:2:0
Битовая глубина : 8 bits
Тип развёртки : Progressive
Метод сжатия : Lossy
Бит/(Пиксели*Кадры) : 0.292
Размер потока : 1.16 GiB (79%)
Библиотека кодирования : XviD 73

Audio
Идентификатор : 1
Формат : AC-3
Формат/Информация : Audio Coding 3
Идентификатор кодека : 2000
Продолжительность : 1 h 48 min
Вид битрейта : Constant
Битрейт : 384 kb/s
Каналы : 6 channels
Расположение каналов : Front: L C R, Side: L R, LFE
Частота : 48.0 kHz
Частота кадров : 31.250 FPS (1536 SPF)
Битовая глубина : 16 bits
Метод сжатия : Lossy
Размер потока : 297 MiB (20%)
Выравнивание : Aligned on interleaves
Продолжительность промежутка : 32 ms (0.77 video frame)

pb.wtf



Скачать Тобол через торрент http://lostpix.com/thumbs/2019-03/20/f1qnutsi9bgej4oi02cayjbwz.png Скачать фильм Тобол через торрент бесплантно в хорошем качестве Описание: Молодой офицер новой гвардии Петра I Иван Демарин по заданию царя отправляется в глубину Сибири — в пограничный Тобольск. Здесь ... 9.8 10 35
Торрент: Зарегистрирован [2019-03-20 20:15] · скачан: 1 255 раз
Статус: √ проверено
Размер: 1.46 GB
Как cкачать? Как скачать Тобол через торрент | qTorrent

% Раздел Тема Автор DL S | L
Наши фильмы (HD, WEB-DL 720p, 1080p) [ 4.75 GB ] Тобол [2019 История BDRip 720p] [] - ExKinoRay Enigma2010 Скачать
36 | 4
Наши новые фильмы 2018-2019 [ 1.73 GB ] Тобол [2019 История BDRip-AVC] [] bober100 Скачать
4 | 0
Наши фильмы (HD, WEB-DL 720p, 1080p) [ 9.01 GB ] Тобол [2019 История BDRip 1080p] [] bober100 Скачать
2 | 0
Наши фильмы (Blu-ray, BD-Remux, HDDVD) [ 35.79 GB ] Тобол [2019 История Blu-ray 1080p] [GER Transfer / ] bober100 Скачать
1 | 0
Наши новые фильмы 2018-2019 [ 1.46 GB ] Тобол [2019 история BDRip] [Русский] [] Twi7ter Скачать
40 | 3
Наши новые фильмы 2018-2019 [ 711 MB ] Тобол [2019 история WEB-DLRip Русский] coc900 Скачать
2 | 0


>> Регистрируемся здесь <<






Отзывы и комментарии о схеме читаем и пишем здесь: ---> Отзывы и комментарии о схеме

Новые благодарочки в телеграм довольных пользователей:
скриншот   скриншот   скриншот   скриншот   скриншот

21-03-2019 06:41 Тобол Скачать торрент  

Как фильм,качество норм?pb.wtf



01-04-2019 11:24 Тобол Скачать торрент  

Ничего себе трейлер. Что делает жажда наживы. Продадим сокращенный вариант, потом сериал. Единственным морально пострадавшим от этого кино будет автор романа талантливый писатель Алексей Иванов. По сравнению с его хорошей книгой это гомеопатическое разведение содержания. Сам Иванов после премьерного показа сказал, что зрители в виде бонуса получат скуку. Не думаю, что он прав. Мне скучно не было, хотя и досадно, что из гобелена подкладку одежды делают. Очень удачный выбор артистов. Неудачный образ царя Петра, но все же не потому что талант Дмитрия Дюжева заметно мельче таланта Николая Симонова или Дмитрия Золотухина, не потому что талант режиссера Зайцева заметно скромней талантов режиссеров Владимира Петрова, Сергея Герасимова и Ильи Гурина, а потому, что погоня за охватом аудитории и прибылью неизбежно снижает художественный уровень. Фильм хорошо снят, хорошие костюмы и декорации, немного утрированные, но зрелищные батальные сцены. Есть у фильма и другие очень скромные и неочевидные, но безусловные достоинства. После просмотра сел перечитывать книгу, чего и всем зрителям желаю. Качество рипа хорошее. Спасибо за раздачу.pb.wtf



    Дорогой пользователь! Огромная просьба, поблагодарите релизера, оцените раздачу и оставьте свои комментарий, если Вы скачали Тобол через торрент бесплатно! Внесите свою лепту в развитие PiratBit!
    Комментировать посты могут только пользователи прошедшие не сложную регистрацию
    Показать сообщения:    

    Тобол через торрент
    Скачать бесплатно Тобол
    Тобол скачать торрент
    Тобол смотреть онлайн
    Cкачать фильм Тобол бесплатно
    Тобол скачать торрент в хорошем качестве
    Тобол смотреть онлайн бесплатно в хорошем качестве


    Вы не можете начинать темы
    Вы не можете отвечать на сообщения
    Вы не можете редактировать свои сообщения
    Вы не можете удалять свои сообщения
    Вы не можете голосовать в опросах
    Вы не можете прикреплять файлы к сообщениям
    Вы можете скачивать файлы