Ссылка на приватное зеркало всего за 1$. Внимание количество ограничено!!!

OK

1+1

iTunes

мы

OK

1

WEB-DLRip

Джокер

Пифагор

Ведьмак / The Witcher сериал

iTunes

ПШазам

ОК

Оно 2

iTunes

30
pack

Вам бонус

ВАЖНО

!!Акция!!

Alien_RageХит недели

RePack

Resident Evil 21

ИГРА 18+

pack

RePack

jed

RePack

fifa19

RePack

Assassins Creed: Odyssey

RePack

NEED FOR SPEED™ PAYBACK

4 сезон

9 сезон

Бесстыжие 9 сезон

Все сериалы

все сериалы на PB.wtf

RePack

FAR CRY 5
  

Экстаз / Climax (Гаспар Ноэ) [2018, мюзикл, ужасы, драма, детектив, BD Remux 1080p] MVO [HDrezka Studio] +MVO (ukr) +DUB [iTunes] pb.wtf

Экстаз через торрент pb.wtf

Размер: 23.5 GB | Добавлен: 10 мес. назад | Торрент скачан:25 раз
Скачать  

20-03-2019 20:44 Экстаз Скачать торрент  

Экстаз / Climax Год выпуска: 2018
Страна: Франция
Жанр: мюзикл, ужасы, драма, детектив
Продолжительность: 01:36:30
Перевод:

Дублированный | iTunes
Профессиональный (многоголосый) | HDRezka Studio

Субтитры: Русские, английские

Режиссер: Гаспар Ноэ

rating

В ролях:

София Бутелла, Ромен Гийермик, Сухейла Якуб, Смайл Кидди, Клод Гаян Малл, Жизелль Палмер, Тейлор Кастл, Теа Карла Шотт, Шерлин Темпл, Леа Вламос

Описание:

Рождение и смерть - невероятный опыт, а жизнь - ускользающее наслаждение. Выпускники академии современного танца решают устроить прощальную вечеринку. Однако таинственным образом под нарастающий ритм музыки их всех охватывает эйфория, которой невозможно сопротивляться. Теперь балом правит зловещий хаос и спасение можно найти, только отдав свою душу танцу. Для одних эта ночь обернется суровым испытанием, а другие познают настоящий экстаз...

Качество: BD Remux 1080p
Формат: MKV

Видео: AVC/H.264, 1920x1080, (16:9), ~30 Mbps, 23.976 fps
Аудио#1: AC3, 6 ch, 384 kbps - Русский (Дубляж, iTunes)
Аудио#2: AC3, 2 ch, 192 kbps - Русский (MVO, HDRezka Studio)
Аудио#3: AC3, 6 ch, 384 kbps - Украинский (MVO, iTunes)
Аудио#4: S-HD MA, 6 ch, 3958 kbps - Французский (Оригинал)
скриншот  скриншот  скриншот  скриншот  

General
Unique ID : 293055495000586780514040350718173332143 (0xDC786F710EF81CCB0ACC62B65F6F42AF)
Complete name : S:Climax.2018.BDRemux.1080p.NNMClub.mkv
Format : Matroska
Format version : Version 4
File size : 23.5 GiB
Duration : 1 h 36 min
Overall bit rate mode : Variable
Overall bit rate : 34.9 Mb/s
Encoded date : UTC 2019-03-19 14:34:36
Writing application : mkvmerge v32.0.0 ('Astral Progressions') 64-bit
Writing library : libebml v1.3.7 + libmatroska v1.5.0

Video
ID : 1
Format : AVC
Format/Info : Advanced Video Codec
Format profile : High@L4.1
Format settings : CABAC / 3 Ref Frames
Format settings, CABAC : Yes
Format settings, ReFrames : 3 frames
Codec ID : V_MPEG4/ISO/AVC
Duration : 1 h 36 min
Bit rate mode : Variable
Bit rate : 30.0 Mb/s
Maximum bit rate : 38.0 Mb/s
Width : 1 920 pixels
Height : 1 080 pixels
Display aspect ratio : 16:9
Frame rate mode : Constant
Frame rate : 23.976 (24000/1001) FPS
Color space : YUV
Chroma subsampling : 4:2:0
Bit depth : 8 bits
Scan type : Progressive
Bits/(Pixel*Frame) : 0.603
Stream size : 20.2 GiB (86%)
Title : Climax (2018) BDRemux 1080p NNMClub
Writing library : x264 core 155 r2901 7d0ff22
Encoding settings : cabac=1 / ref=4 / deblock=1:-1:-1 / analyse=0x3:0x133 / me=umh / subme=10 / psy=1 / psy_rd=1.00:0.15 / mixed_ref=1 / me_range=24 / chroma_me=1 / trellis=2 / 8x8dct=1 / cqm=0 / deadzone=21,11 / fast_pskip=1 / chroma_qp_offset=-6 / threads=12 / lookahead_threads=1 / sliced_threads=0 / slices=4 / nr=0 / decimate=1 / interlaced=0 / bluray_compat=1 / stitchable=1 / constrained_intra=0 / bframes=3 / b_pyramid=1 / b_adapt=2 / b_bias=0 / direct=3 / weightb=1 / open_gop=1 / weightp=1 / keyint=24 / keyint_min=1 / scenecut=40 / intra_refresh=0 / rc_lookahead=24 / rc=2pass / mbtree=1 / bitrate=30000 / ratetol=0.1 / qcomp=0.60 / qpmin=0 / qpmax=69 / qpstep=4 / cplxblur=20.0 / qblur=0.5 / vbv_maxrate=38000 / vbv_bufsize=30000 / nal_hrd=vbr / filler=0 / ip_ratio=1.40 / aq=1:1.00
Language : French
Default : Yes
Forced : No
Color range : Limited
Color primaries : BT.709
Transfer characteristics : BT.709
Matrix coefficients : BT.709

Audio #1
ID : 2
Format : AC-3
Format/Info : Audio Coding 3
Commercial name : Dolby Digital
Codec ID : A_AC3
Duration : 1 h 36 min
Bit rate mode : Constant
Bit rate : 384 kb/s
Channel(s) : 6 channels
Channel layout : L R C LFE Ls Rs
Sampling rate : 48.0 kHz
Frame rate : 31.250 FPS (1536 SPF)
Bit depth : 16 bits
Compression mode : Lossy
Stream size : 265 MiB (1%)
Title : DUB-iTunes
Language : Russian
Service kind : Complete Main
Default : Yes
Forced : No

Audio #2
ID : 3
Format : AC-3
Format/Info : Audio Coding 3
Commercial name : Dolby Digital
Codec ID : A_AC3
Duration : 1 h 36 min
Bit rate mode : Constant
Bit rate : 192 kb/s
Channel(s) : 2 channels
Channel layout : L R
Sampling rate : 48.0 kHz
Frame rate : 31.250 FPS (1536 SPF)
Bit depth : 16 bits
Compression mode : Lossy
Stream size : 133 MiB (1%)
Title : MVO-HDRezka Studio
Language : Russian
Service kind : Complete Main
Default : No
Forced : No

Audio #3
ID : 4
Format : AC-3
Format/Info : Audio Coding 3
Commercial name : Dolby Digital
Codec ID : A_AC3
Duration : 1 h 36 min
Bit rate mode : Constant
Bit rate : 384 kb/s
Channel(s) : 6 channels
Channel layout : L R C LFE Ls Rs
Sampling rate : 48.0 kHz
Frame rate : 31.250 FPS (1536 SPF)
Bit depth : 16 bits
Compression mode : Lossy
Stream size : 265 MiB (1%)
Title : MVO-iTunes
Language : Ukrainian
Service kind : Complete Main
Default : No
Forced : No

Audio #4
ID : 5
Format : DTS XLL
Format/Info : Digital Theater Systems
Commercial name : DTS-HD Master Audio
Codec ID : A_DTS
Duration : 1 h 36 min
Bit rate mode : Variable
Bit rate : 3 958 kb/s
Channel(s) : 6 channels
Channel layout : C L R Ls Rs LFE
Sampling rate : 48.0 kHz
Frame rate : 93.750 FPS (512 SPF)
Bit depth : 24 bits
Compression mode : Lossless
Stream size : 2.67 GiB (11%)
Title : Original
Language : French
Default : No
Forced : No

Text #1
ID : 6
Format : UTF-8
Codec ID : S_TEXT/UTF8
Codec ID/Info : UTF-8 Plain Text
Duration : 1 h 34 min
Bit rate : 62 b/s
Count of elements : 1080
Stream size : 43.3 KiB (0%)
Title : Full
Language : Russian
Default : No
Forced : No

Text #2
ID : 7
Format : UTF-8
Codec ID : S_TEXT/UTF8
Codec ID/Info : UTF-8 Plain Text
Duration : 1 h 32 min
Bit rate : 28 b/s
Count of elements : 1073
Stream size : 19.5 KiB (0%)
Title : Full
Language : English
Default : No
Forced : No

Menu
00:00:00.000 : en:Chapter 01
00:09:34.782 : en:Chapter 02
00:15:17.708 : en:Chapter 03
00:23:33.370 : en:Chapter 04
00:31:16.416 : en:Chapter 05
00:37:39.048 : en:Chapter 06
00:47:18.418 : en:Chapter 07
00:54:03.198 : en:Chapter 08
01:04:59.353 : en:Chapter 09
01:11:01.966 : en:Chapter 10
01:20:35.622 : en:Chapter 11
01:30:17.036 : en:Chapter 12

pb.wtf



Скачать Экстаз через торрент https://a.radikal.ru/a16/1903/c8/dea677ff6c00.jpg Скачать фильм Экстаз через торрент бесплантно в хорошем качестве Описание: Рождение и смерть - невероятный опыт, а жизнь - ускользающее наслаждение. Выпускники академии современного танца решают устроить ... 8.5 10 4
Торрент: Зарегистрирован [2019-03-20 20:44] · скачан: 25 раз
Статус: √ проверено
Размер: 23.5 GB
Как cкачать? Как скачать Экстаз через торрент | qTorrent

% Раздел Тема Автор DL S | L
Фильмы 2018 [DVDrip, WEB-DLRip, HDrip] (DUB, MVO) [ 1.93 GB ] Экстаз / Climax [2018 мюзикл BDRip-AVC] MVO [HDrezka Studio] + bober100 Скачать
1 | 0
Фильмы 2018 [DVDrip, WEB-DLRip, HDrip] (DUB, MVO) [ 1.42 GB ] Экстаз / Climax [2018 мюзикл BDRip] bober100 Скачать
1 | 0

28-11-2019 20:33  

Отключить всю рекламу на сайте

    Дорогой пользователь! Огромная просьба, поблагодарите релизера, оцените раздачу и оставьте свои комментарий, если Вы скачали Экстаз через торрент бесплатно! Внесите свою лепту в развитие PiratBit!
    Комментировать посты могут только пользователи прошедшие не сложную регистрацию
    Показать сообщения:    

    Экстаз через торрент
    Скачать бесплатно Экстаз
    Экстаз скачать торрент
    Экстаз смотреть онлайн
    Cкачать фильм Экстаз бесплатно
    Экстаз скачать торрент в хорошем качестве
    Экстаз смотреть онлайн бесплатно в хорошем качестве


    Вы не можете начинать темы
    Вы не можете отвечать на сообщения
    Вы не можете редактировать свои сообщения
    Вы не можете удалять свои сообщения
    Вы не можете голосовать в опросах
    Вы не можете прикреплять файлы к сообщениям
    Вы можете скачивать файлы