Ссылка на приватное зеркало нашего сайта всего за 1$. Внимание количество ограничено!!!

2 сезон

iTunes

1 сезон

1

iTunes

iTunes

iTunes

1 сезон

RePack

30

ИГРА 18+

pack

ВАЖНО

!!Акция!!

Alien_RageХит недели

RePack

MK11
pack

Забери бонус

RePack

jed

!!Акция!!

Alien_Rage

RePack

fifa19

RePack

Assassins Creed: Odyssey

RePack

NEED FOR SPEED™ PAYBACK

4 сезон

9 сезон

Бесстыжие 9 сезон

Все сериалы

все сериалы на PB.wtf

RePack

FAR CRY 5
  

Ужин с Тимоном и Пумбой / Dining Out with Timon and Pumbaa (Джулия Моргави, Брэд Нив) [1995 г., мультфильм, комедия, семейный, ..., DVDRip] pb.wtf

Ужин с Тимоном и Пумбой через торрент pb.wtf

Размер: 698 MB | Добавлен: 9 лет 9 мес. назад | Торрент скачан:116 раз
Скачать  

08-01-2011 09:31 Ужин с Тимоном и Пумбой Скачать торрент  

Ужин с Тимоном и Пумбой / Dining Out with Timon and Pumbaa
Год выпуска: 1995
Страна: США
Жанр: мультфильм, комедия, семейный, ...
Продолжительность: 01:02:05
Перевод: Профессиональный (полное дублирование)

Режиссер: Джулия Моргави, Брэд Нив
Продюссер: Роберт Ганнавей, Тед Анасти, Chris Bartleman, ...
Сценарий: Роберт Ганнавей, Ричард Джайтелсон, Кэт Ликкел, ...

Мировой рейтинг IMDB 6.90 (635)


В ролях: Эрни Сабелла, Кевин Шон, Куинтон Флинн, Джим Каммингс, Джефф Беннетт, Кори Бертон, Роб Полсен, Фрэнк Уэлкер, Роберт Гийом, Чарльз АдлОписаниеВсем безусловно известен Симба (Король  Лев), но ему не суждено было-бы им стать без его лучших друзей  Тимона и Пумбы! «Акуна матата!»: это их главный девиз и не будет никаких проблем! Но мы сможем познакомится и с другими обитателями саваны.В «Картофеле фри по-французски» Тимон и Пумба попадают на корабле во Францию в компании с улиткой. Понимая, что дни их нового друга сочтены, они разрабатывают план спасения. «Русский час» - друзья приехали навестить русского родственника Пумбы, который собирается дать прощальное выступление в Большом Театре, но попадает в больницу. Пумба готов станцевать вместо него. «Швейцарский промах» - Тимон и Пумба наслаждаются швейцарскими сладостями и знакомятся с часовщиком. Но вдруг ломаются городские часы и их новому другу грозит увольнение. Тимон крадет весь запас еды у птенца. Мать заставляет друзей присмотреть за ним, пока она ищет новую пищу. Но это была плохая идея и теперь главное – «Спасти птицу» от новых нянек.

Качество: DVDRip
Формат: AVI
Видео кодек: XviD
Аудио кодек: MP3
Видео: XviD, 656x528, 1438 кб/с
Аудио: MPEG Layer-3, 2ch, 128 кб/с
E:\фильмы\тимон и пумба\Ujin_s_Timonom_i_Pumboy.avi
General
Complete name : E:\фильмы\тимон и пумба\Ujin_s_Timonom_i_Pumboy.avi
Format : AVI
Format/Info : Audio Video Interleave
File size : 698 MiB
Duration : 1h 2mn
Overall bit rate : 1 572 Kbps
Writing application : VirtualDubMod 1.5.4.1 (build 2117/release)
Writing library : VirtualDubMod build 2117/release
Video #0
ID : 0
Format : MPEG-4 Visual
Format settings, BVOP : No
Format settings, QPel : No
Format settings, GMC : No warppoints
Format settings, Matrix : Default (H.263)
Codec ID : DX50
Codec ID/Hint : DivX 5
Duration : 1h 2mn
Bit rate : 1 434 Kbps
Width : 656 pixels
Height : 528 pixels
Display aspect ratio : 5:4
Frame rate : 25.000 fps
Resolution : 24 bits
Colorimetry : 4:2:0
Scan type : Progressive
Bits/(Pixel*Frame) : 0.166
Stream size : 637 MiB (91%)
Writing library : DivX 5.1.1 (Maupiti) (UTC 2003-11-19)
Audio #1
ID : 1
Format : MPEG Audio
Format version : Version 1
Format profile : Layer 3
Codec ID : 55
Codec ID/Hint : MP3
Duration : 1h 2mn
Bit rate mode : Constant
Bit rate : 128 Kbps
Channel(s) : 2 channels
Sampling rate : 48.0 KHz
Resolution : 16 bits
Stream size : 56.8 MiB (8%)
Alignment : Aligned on interleaves
Interleave, duration : 40 ms (1.00 video frame)
Interleave, preload duration : 504 ms






pb.wtf



Скачать Ужин с Тимоном и Пумбой через торрент http://piratbit.in.ua/38073bb88a38f8dd9b16578bfdae5a20.jpg Скачать фильм Ужин с Тимоном и Пумбой через торрент бесплантно в хорошем качестве ОписаниеВсем безусловно известен Симба (Король  Лев), но ему не суждено было-бы им стать без его лучших друзей  Тимона и Пумбы! «Акуна ... 5 10 6
Info! Золотая раздача, скачанное не засчитывается.
Торрент: Зарегистрирован [2011-01-08 09:31] · скачан: 116 раз
Статус: √ проверено
Размер: 698 MB
Как cкачать? Как скачать Ужин с Тимоном и Пумбой через торрент | qTorrent

28-11-2019 20:33  

Отключить всю рекламу на сайте

    Дорогой пользователь! Огромная просьба, поблагодарите релизера, оцените раздачу и оставьте свои комментарий, если Вы скачали Ужин с Тимоном и Пумбой через торрент бесплатно! Внесите свою лепту в развитие PiratBit!
    Комментировать посты могут только пользователи прошедшие не сложную регистрацию
    Показать сообщения:    

    Ужин с Тимоном и Пумбой через торрент
    Скачать бесплатно Ужин с Тимоном и Пумбой
    Ужин с Тимоном и Пумбой скачать торрент
    Ужин с Тимоном и Пумбой смотреть онлайн
    Cкачать фильм Ужин с Тимоном и Пумбой бесплатно
    Ужин с Тимоном и Пумбой скачать торрент в хорошем качестве
    Ужин с Тимоном и Пумбой смотреть онлайн бесплатно в хорошем качестве


    Вы не можете начинать темы
    Вы не можете отвечать на сообщения
    Вы не можете редактировать свои сообщения
    Вы не можете удалять свои сообщения
    Вы не можете голосовать в опросах
    Вы не можете прикреплять файлы к сообщениям
    Вы можете скачивать файлы