Ссылка на приватное зеркало всего за 1$. Внимание количество ограничено!!!

OK

1+1

iTunes

мы

OK

1

WEB-DLRip

Джокер

Пифагор

Ведьмак / The Witcher сериал

iTunes

ПШазам

ОК

Оно 2

iTunes

30
pack

Вам бонус

ВАЖНО

!!Акция!!

Alien_RageХит недели

RePack

Resident Evil 21

ИГРА 18+

pack

RePack

jed

RePack

fifa19

RePack

Assassins Creed: Odyssey

RePack

NEED FOR SPEED™ PAYBACK

4 сезон

9 сезон

Бесстыжие 9 сезон

Все сериалы

все сериалы на PB.wtf

RePack

FAR CRY 5
  

Бамблби / Bumblebee (Трэвис Найт) [2018, фантастика, боевик, приключения, WEB-DL 720p] DUB [Line] pb.wtf

Бамблби через торрент pb.wtf

Раздают: 1 [ 0 KB/s ]
Размер: 4.59 GB | Добавлен: 10 мес. назад | Торрент скачан:129 раз
Скачать  

21-03-2019 07:35 Бамблби Скачать торрент  

Бамблби / Bumblebee
Год выпуска: 2018
Страна: США
Жанр: фантастика, боевик, приключения
Продолжительность: 01:55:06
Перевод: Дублированный | Line
Субтитры: отсутствуют

Режиссер: Трэвис Найт

rating

В ролях:

Дилан О Брайен, Хейли Стайнфелд, Джастин Теру, Джон Сина, Анджела Бассетт, Памела Адлон, Мегин Прайс, Грэй ДеЛисл, Питер Каллен, Кеннет Чои

Описание:

1987 год. Скрываясь от преследования, Бамблби находит убежище на автомобильной свалке в калифорнийском городке, где живет Чарли. Девушке скоро исполнится 18, она стремится найти свое место в жизни. И именно она наталкивается на покореженного и сломленного Бамблби. Приведя его в чувство, Чарли моментально осознает: на ее пути оказался не простой желтый Фольксваген Жук….

Качество: WEB-DL 720p
Формат: MKV

Видео: 5 324 kb/s, 1280x720
Аудио#1: Русский, (AC3, 2 ch, 384 Кбит/с)
скриншот  скриншот  скриншот  

Общее
Уникальный идентификатор : 246977317139580874795139902834676666067 (0xB9CE19DF7C0DE38DA7737F63E9C50ED3)
Полное имя : D:\Bumblebee.2018.D.WEB-DL.72Op.mkv
Формат : Matroska
Версия формата : Version 2
Размер файла : 4,59 Гбайт
Продолжительность : 1 ч. 55 м.
Режим общего битрейта : Переменный
Общий поток : 5710 Кбит/сек
Дата кодирования : UTC 2019-03-20 03:15:52
Программа кодирования : mkvmerge v8.3.0 ('Over the Horizon') 64bit
Библиотека кодирования : libebml v1.3.1 + libmatroska v1.4.2

Видео
Идентификатор : 1
Формат : AVC
Формат/Информация : Advanced Video Codec
Профиль формата : High@L4.1
Параметр CABAC формата : Да
Параметр RefFrames формата : 4 кадра
Идентификатор кодека : V_MPEG4/ISO/AVC
Продолжительность : 1 ч. 55 м.
Вид битрейта : Переменный
Битрейт : 5324 Кбит/сек
Максимальный битрейт : 6000 Кбит/сек
Ширина : 1280 пикселей
Высота : 720 пикселей
Соотношение сторон : 16:9
Режим частоты кадров : Постоянный
Частота кадров : 23,976 (24000/1001) кадра/сек
Стандарт вещания : Component
Цветовое пространство : YUV
Субдискретизация насыщенности : 4:2:0
Битовая глубина : 8 бит
Тип развёртки : Прогрессивная
Бит/(Пиксели*Кадры) : 0.236
Размер потока : 4,19 Гбайт (91%)
Default : Да
Forced : Нет
Цветовой диапазон : Limited
Основные цвета : BT.709
Характеристики трансфера : BT.709
Коэффициенты матрицы : BT.709

Аудио
Идентификатор : 2
Формат : AC-3
Формат/Информация : Audio Coding 3
Расширение режима : CM (complete main)
Параметр Endianness формата : Big
Идентификатор кодека : A_AC3
Продолжительность : 1 ч. 55 м.
Вид битрейта : Постоянный
Битрейт : 384 Кбит/сек
Каналы : 2 канала
Расположение каналов : Front: L R
Частота : 48,0 КГц
Частота кадров : 31,250 кадров/сек (1536 spf)
Метод сжатия : С потерями
Размер потока : 316 Мбайт (7%)
Default : Да
Forced : Нет

pb.wtf



Скачать Бамблби через торрент https://i2.imageban.ru/out/2019/01/22/5c1f99203552ec31a8748a803e486411.png Скачать фильм Бамблби через торрент бесплантно в хорошем качестве Описание: 1987 год. Скрываясь от преследования, Бамблби находит убежище на автомобильной свалке в калифорнийском городке, где живет Чарли. ... 10 10 3
Торрент: Зарегистрирован [2019-03-21 07:35] · скачан: 129 раз
Статус: T временная
Размер: 4.59 GB
Как cкачать? Как скачать Бамблби через торрент | qTorrent

% Раздел Тема Автор DL S | L
Фильмы (Blu-ray, BD-Remux, HDDVD) [ 26.5 GB ] Бамблби / Bumblebee [2018 BDRemux 1080p] DUB [] + 2xMVO [СВ Студия HDRezka Studio] sheker187 Скачать
1 | 0
Фильмы (WEB-DL 720p, 1080p) [ 8.47 GB ] Бамблби / Bumblebee [2018 BDRip 1080p] [] + 2x[MVO] killermax2013 Скачать
4 | 0
Фильмы 2018 [DVDrip, WEB-DLRip, HDrip] (DUB, MVO) [ 1.46 GB ] Бамблби / Bumblebee [2018 BDRip] - [] Twi7ter Скачать
6 | 1
Фильмы 2018 [DVDrip, WEB-DLRip, HDrip] (DUB, MVO) [ 2.19 GB ] Бамблби / Bumblebee [2018 BDRip] - [] Twi7ter Скачать
5 | 0
Фильмы [HD 720p, 1080p] (Хороший звук DUB, MVO) [ 8.21 GB ] Бамблби / Bumblebee [2018 BDRip 720p] DUB [] + 2xMVO [СВ Студия HDRezka Studio] sheker187 Скачать
2 | 0
Ultra HD (UHD: 2K, 4K, 8K) — видео сверхвысокой чёткости [ 33.48 GB ] Бамблби / Bumblebee [2018 UHD BDRip 2160p] [SDR] DUB [] + 2xMVO [СВ Студия HDRezka Studio] sheker187 Скачать
1 | 0
Ultra HD (UHD: 2K, 4K, 8K) — видео сверхвысокой чёткости [ 52.64 GB ] Бамблби / Bumblebee [2018 UHD BDRemux 2160p] DUB [] [Dolby Vision] sheker187 Скачать
1 | 0

28-11-2019 20:33  

Отключить всю рекламу на сайте

    Дорогой пользователь! Огромная просьба, поблагодарите релизера, оцените раздачу и оставьте свои комментарий, если Вы скачали Бамблби через торрент бесплатно! Внесите свою лепту в развитие PiratBit!
    Комментировать посты могут только пользователи прошедшие не сложную регистрацию
    Показать сообщения:    

    Бамблби через торрент
    Скачать бесплатно Бамблби
    Бамблби скачать торрент
    Бамблби смотреть онлайн
    Cкачать фильм Бамблби бесплатно
    Бамблби скачать торрент в хорошем качестве
    Бамблби смотреть онлайн бесплатно в хорошем качестве


    Вы не можете начинать темы
    Вы не можете отвечать на сообщения
    Вы не можете редактировать свои сообщения
    Вы не можете удалять свои сообщения
    Вы не можете голосовать в опросах
    Вы не можете прикреплять файлы к сообщениям
    Вы можете скачивать файлы