новый адрес
Ссылка на приватное зеркало всего за 1$. Внимание количество ограничено!!!

iTunes

1+1

iTunes

мы

iTunes

1

iTunes

Чернобыль

iTunes

Ральф против интернета

Лицензия

ПШазам

Лицензия

Оно 2

Лицензия

30
pack

Вам бонус

ВАЖНО

!!Акция!!

Alien_RageХит недели

RePack

Resident Evil 21

ИГРА 18+

pack

RePack

jed

!!Акция!!

Alien_Rage

RePack

fifa19

RePack

Assassins Creed: Odyssey

RePack

NEED FOR SPEED™ PAYBACK

3 сезон

9 сезон

Бесстыжие 9 сезон

Все сериалы

все сериалы на PB.wtf

RePack

FAR CRY 5
Ребята, катастрофически не хватает 1900р. для оплаты серверов за Октябрь (всвязи с блокировками трафик упал в 3 раза), 1-2р., выручайте.
  

Большой «Фитиль» (Мери Анджапаридзе, Эдуард Бочаров, Софья Милькина) [1963, СССР, комедия, DVDRip от AVP Studio] pb.wtf

Большой «Фитиль» через торрент pb.wtf

Размер: 848 MB | Добавлен: 8 мес. назад | Торрент скачан:23 раза
Скачать  

21-03-2019 08:08 Большой «Фитиль» Скачать торрент  

Большой «Фитиль»
Страна: СССР
Производство: Киностудия им. М.Горького, Мосфильм, Ленфильм, Союзмультфильм

Жанр: комедия
Год выпуска: 1963
Продолжительность: 01:07:38

Перевод: Не требуется
Cубтитры: нет
Оригинальная аудиодорожка: русский

Режиссер: Мери Анджапаридзе, Эдуард Бочаров, Софья Милькина

В ролях:
Николай Парфёнов, Юрий Никулин, Ролан Быков, Юрий Медведев, Николай Крючков, Леонид Быков, Сергей Филиппов, Николай Трофимов, Леонид Харитонов, Михаил Пуговкин, Вадим Захарченко, Владимир Прокофьев, Григорий Шпигель, Сергей Михалков, Константин Немоляев, Данута Столярская, Георгий Милляр, Павел Павленко, Геннадий Некрасов, Станислав Чекан...
Об актёрах подробней

Описание:
В путь оправляется экспресс сатирического направления. Машинист Сергей Михалков даёт прощальный гудок... На первом вагоне надпись - "Дачурка". Далее следуют 8 новелл: "Дачурка", "Влип", "Сон в руку", "Гудок", "Увертюра", "Расплата", "Жалкий жребий", "Миллионер". Между новеллами "Гудок" и "Увертюра" - интермедия "Шашки".

Источник: DVD5 R5
Качество видео: DVDRip
Формат видео: AVI

Видео: 704х528 (4:3), 25,000 fps, XviD ~ 1550 kbps avg, 0.167 bit/pixel
Аудио: 48 kHz, Dolby Digital AC3 2.0, 192 kbps

Раздача от:
Общее
Полное имя : Bolshoy.«Fitil».1963.DVDRip_[New-team]_by_AVP_Studio.avi
Формат : AVI
Формат/Информация : Audio Video Interleave
Размер файла : 848 Мбайт
Продолжительность : 1 ч. 7 м.
Общий поток : 1752 Кбит/сек
Программа кодирования : VirtualDubMod 1.5.10.3 | www.virtualdub-fr.org || (build 2550/release)
Библиотека кодирования : VirtualDubMod build 2550/release

Видео
Идентификатор : 0
Формат : MPEG-4 Visual
Профиль формата : Advanced Simple@L5
Настройки формата : BVOP1 / Custom Matrix
Параметр BVOP формата : 1
Параметр QPel формата : Нет
Параметр GMC формата : Без точки перехода
Параметр матрицы формата : Выборочная
Идентификатор кодека : XVID
Идентификатор кодека/Подсказка : XviD
Продолжительность : 1 ч. 7 м.
Битрейт : 1550 Кбит/сек
Ширина : 704 пикселя
Высота : 528 пикселей
Соотношение сторон : 4:3
Частота кадров : 25,000 кадров/сек
Цветовое пространство : YUV
Субдискретизация насыщенности : 4:2:0
Битовая глубина : 8 бит
Тип развёртки : Прогрессивная
Метод сжатия : С потерями
Бит/(Пиксели*Кадры) : 0.167
Размер потока : 750 Мбайт (88%)
Библиотека кодирования : XviD 73

Аудио
Идентификатор : 1
Формат : AC-3
Формат/Информация : Audio Coding 3
Коммерческое название : Dolby Digital
Идентификатор кодека : 2000
Продолжительность : 1 ч. 7 м.
Вид битрейта : Постоянный
Битрейт : 192 Кбит/сек
Каналы : 2 канала
Channel layout : L R
Частота : 48,0 КГц
Частота кадров : 31,250 кадров/сек (1536 SPF)
Битовая глубина : 16 бит
Метод сжатия : С потерями
Размер потока : 92,9 Мбайт (11%)
Выравнивание : Разделение по промежуткам
Продолжительность промежутка : 40 мс. (1,00 видеокадр)
Время предзагрузки промежутка : 500 мс
pb.wtf



Скачать Большой «Фитиль» через торрент http://picplus.ru/img/1903/21/831d6b95.png Скачать фильм Большой «Фитиль» через торрент бесплантно в хорошем качестве Описание:В путь оправляется экспресс сатирического направления. Машинист Сергей Михалков даёт прощальный гудок... На первом вагоне надпись ... 10 10 2
Info! Золотая раздача, скачанное не засчитывается.
Торрент: Зарегистрирован [2019-03-21 08:08] · скачан: 23 раз
Статус: √ проверено
Размер: 848 MB
Как cкачать? Как скачать Большой «Фитиль» через торрент | qTorrent

% Раздел Тема Автор DL S | L
Кино СССР [ 744 MB ] Большой «Фитиль» [1963 СССР DVDRip-AVC от AVP Studio] AVP Studio Скачать
1 | 0


>> Переходим по ссылке <<
Автоматически подгузится скрипт который настроит ваш браузер на выигрыш!!
После настройки браузера вероятность выигрыша увеличется в 4.1-4,6 раза.
В течение 6 секунд вам откроется настроенный интерфейс казино, с повышенной вероятностью выигрыша.






Отзывы и комментарии о схеме читаем и пишем здесь: ---> Отзывы и комментарии о схеме

Новые благодарочки в телеграм довольных пользователей:
скриншот   скриншот   скриншот   скриншот   скриншот
    Дорогой пользователь! Огромная просьба, поблагодарите релизера, оцените раздачу и оставьте свои комментарий, если Вы скачали Большой «Фитиль» через торрент бесплатно! Внесите свою лепту в развитие PiratBit!
    Комментировать посты могут только пользователи прошедшие не сложную регистрацию
    Показать сообщения:    

    Большой «Фитиль» через торрент
    Скачать бесплатно Большой «Фитиль»
    Большой «Фитиль» скачать торрент
    Большой «Фитиль» смотреть онлайн
    Cкачать фильм Большой «Фитиль» бесплатно
    Большой «Фитиль» скачать торрент в хорошем качестве
    Большой «Фитиль» смотреть онлайн бесплатно в хорошем качестве


    Вы не можете начинать темы
    Вы не можете отвечать на сообщения
    Вы не можете редактировать свои сообщения
    Вы не можете удалять свои сообщения
    Вы не можете голосовать в опросах
    Вы не можете прикреплять файлы к сообщениям
    Вы можете скачивать файлы