Ссылка на приватное зеркало всего за 1$. Внимание количество ограничено!!!

OK

1+1

iTunes

мы

OK

1

WEB-DLRip

Джокер

Пифагор

Ведьмак / The Witcher сериал

iTunes

ПШазам

ОК

Оно 2

iTunes

30
pack

Вам бонус

ВАЖНО

!!Акция!!

Alien_RageХит недели

RePack

Resident Evil 21

ИГРА 18+

pack

RePack

jed

RePack

fifa19

RePack

Assassins Creed: Odyssey

RePack

NEED FOR SPEED™ PAYBACK

4 сезон

9 сезон

Бесстыжие 9 сезон

Все сериалы

все сериалы на PB.wtf

RePack

FAR CRY 5
  

Неуправляемая сила / The Ungovernable Force (Пол М Макларни) [2015, Ужасы, фантастика, боевик, триллер, комедия, приключения, WEB-DL 720p] MVO ["Синема УС"] pb.wtf

Неуправляемая сила через торрент pb.wtf

Размер: 4.13 GB | Добавлен: 10 мес. назад | Торрент скачан:31 раз
Скачать  

21-03-2019 08:56 Неуправляемая сила Скачать торрент  

Неуправляемая сила / The Ungovernable ForceГод выпуска: 2015
Страна: США, Великобритания
Жанр: Ужасы, фантастика, боевик, триллер, комедия, приключения
Продолжительность: 01:41:29
Перевод: Любительский (многоголосый) | "Синема УС"
Субтитры: отсутствуют

Режиссер: Пол М Макларни

rating

В ролях:

Тони Моран, Ллойд Кауфман, Дэбби Рошон, Дайан Пиментел, Артур Хию, Ричард Чандлер, Лин Хултгрен, Шенд, Грэхэм Кинг, Билл Уиден

Описание:

Группа панков объединяется с местными бомжами, чтобы покончить с властью шерифа-фашиста и его заместителей, которые насилуют и убивают бездомных женщин. А между делом главный герой и инициатор восстания против шерифа, Сэл, тоскует по своей бывшей. Просто он еще не знает, какой мразью она на самом деле была.

Качество: WEB-DL 720p
Формат: MKV

Видео: h.264, 5 435 kb/s, 1280x544
Аудио#1: Русский, (AC3, 2 ch, 384 Кбит/с)
скриншот  скриншот  скриншот  

Общее
Уникальный идентификатор : 184211296068883552778912297159751444825 (0x8A95CE1C4D263C70AF0D6D799A7D2959)
Полное имя : D:\The_Ungovernable_Force.2015.P.WEB-DL.72Op_KOSHARA.mkv
Формат : Matroska
Версия формата : Version 2
Размер файла : 4,13 Гбайт
Продолжительность : 1 ч. 41 м.
Режим общего битрейта : Переменный
Общий поток : 5821 Кбит/сек
Дата кодирования : UTC 2019-03-20 16:25:14
Программа кодирования : mkvmerge v8.3.0 ('Over the Horizon') 64bit
Библиотека кодирования : libebml v1.3.1 + libmatroska v1.4.2

Видео
Идентификатор : 1
Формат : AVC
Формат/Информация : Advanced Video Codec
Профиль формата : High@L4.1
Параметр CABAC формата : Да
Параметр RefFrames формата : 4 кадра
Идентификатор кодека : V_MPEG4/ISO/AVC
Продолжительность : 1 ч. 41 м.
Вид битрейта : Переменный
Битрейт : 5435 Кбит/сек
Максимальный битрейт : 6000 Кбит/сек
Ширина : 1280 пикселей
Высота : 544 пикселя
Соотношение сторон : 2,35:1
Режим частоты кадров : Постоянный
Частота кадров : 23,976 (24000/1001) кадра/сек
Стандарт вещания : Component
Цветовое пространство : YUV
Субдискретизация насыщенности : 4:2:0
Битовая глубина : 8 бит
Тип развёртки : Прогрессивная
Бит/(Пиксели*Кадры) : 0.319
Размер потока : 3,77 Гбайт (91%)
Default : Да
Forced : Нет
Цветовой диапазон : Limited
Основные цвета : BT.709
Характеристики трансфера : BT.709
Коэффициенты матрицы : BT.709

Аудио
Идентификатор : 2
Формат : AC-3
Формат/Информация : Audio Coding 3
Расширение режима : CM (complete main)
Параметр Endianness формата : Big
Идентификатор кодека : A_AC3
Продолжительность : 1 ч. 41 м.
Вид битрейта : Постоянный
Битрейт : 384 Кбит/сек
Каналы : 2 канала
Расположение каналов : Front: L R
Частота : 48,0 КГц
Частота кадров : 31,250 кадров/сек (1536 spf)
Метод сжатия : С потерями
Размер потока : 279 Мбайт (7%)
Default : Да
Forced : Нет

pb.wtf



Скачать Неуправляемая сила через торрент https://a.radikal.ru/a22/1903/1e/f22bfce55811.jpg Скачать фильм Неуправляемая сила через торрент бесплантно в хорошем качестве Описание: Группа панков объединяется с местными бомжами, чтобы покончить с властью шерифа-фашиста и его заместителей, которые насилуют и ... 10 10 3
Торрент: Зарегистрирован [2019-03-21 08:56] · скачан: 31 раз
Статус: T временная
Размер: 4.13 GB
Как cкачать? Как скачать Неуправляемая сила через торрент | qTorrent

% Раздел Тема Автор DL S | L
T Фильмы (мультфильмы) cо спонсором показа (Новинки AVI/MKV) [ 1.37 GB ] Неуправляемая сила / The Ungovernable Force [2015 WEB-DLRip] MVO ["Синема УС"] bober100 Скачать
1 | 0

28-11-2019 20:33  

Отключить всю рекламу на сайте

21-03-2019 17:18 Неуправляемая сила Скачать торрент  

Добрый вечер,дамы и господа. Хочу с вами поделиться впечатлением от начала прочтения описания к фильму. ОРУ В ГОЛОСИНУ. Всем спасибо.pb.wtf



    Дорогой пользователь! Огромная просьба, поблагодарите релизера, оцените раздачу и оставьте свои комментарий, если Вы скачали Неуправляемая сила через торрент бесплатно! Внесите свою лепту в развитие PiratBit!
    Комментировать посты могут только пользователи прошедшие не сложную регистрацию
    Показать сообщения:    

    Неуправляемая сила через торрент
    Скачать бесплатно Неуправляемая сила
    Неуправляемая сила скачать торрент
    Неуправляемая сила смотреть онлайн
    Cкачать фильм Неуправляемая сила бесплатно
    Неуправляемая сила скачать торрент в хорошем качестве
    Неуправляемая сила смотреть онлайн бесплатно в хорошем качестве


    Вы не можете начинать темы
    Вы не можете отвечать на сообщения
    Вы не можете редактировать свои сообщения
    Вы не можете удалять свои сообщения
    Вы не можете голосовать в опросах
    Вы не можете прикреплять файлы к сообщениям
    Вы можете скачивать файлы