Ссылка на приватное зеркало всего за 1$. Внимание количество ограничено!!!

OK

1+1

iTunes

мы

OK

1

WEB-DLRip

Джокер

Пифагор

Ведьмак / The Witcher сериал

Лицензия

ПШазам

ОК

Оно 2

iTunes

30
pack

Вам бонус

ВАЖНО

!!Акция!!

Alien_RageХит недели

RePack

Resident Evil 21

ИГРА 18+

pack

RePack

jed

RePack

fifa19

RePack

Assassins Creed: Odyssey

RePack

NEED FOR SPEED™ PAYBACK

4 сезон

9 сезон

Бесстыжие 9 сезон

Все сериалы

все сериалы на PB.wtf

RePack

FAR CRY 5
  

Радуга / Reinbou (Андрес Курбело, Дэвид Малер) [2017, драма, WEB-DL 720p] MVO ["Синема УС"] pb.wtf

Радуга через торрент pb.wtf

Размер: 4.03 GB | Добавлен: 10 мес. назад | Торрент скачан:17 раз
Скачать  

21-03-2019 11:53 Радуга Скачать торрент  

Радуга / ReinbouГод выпуска: 2017
Страна: Доминикана
Жанр: драма
Продолжительность: 01:41:25
Перевод: Любительский (многоголосый) | "Синема УС"
Субтитры: отсутствуют

Режиссер: Андрес Курбело, Дэвид Малер

rating

В ролях:

Нашла Богарт, Эктор Анибал, Дэвид Малер, Кэтрин Кастро, Закарис Эредиа, Эрик Васкес, Адисмери Эспиноса, Мериадис Эспиноса, Грег Джерманн, Синтия Гусман

Описание:

Анхель Maсета не знает ни своего отца, ни человека по имени Пуро, ни всей истории. Всё меняется в тот день, когда он находит "волшебную книгу", которая медленно раскрывает историю Доминиканской гражданской войны 1965 года.

Качество: WEB-DL 720p
Формат: MKV

Видео: h.264,5 305 kb/s, 1280x578
Аудио: Русский, (AC3, 2 ch, 384 Кбит/с)
скриншот  скриншот  скриншот  

Общее
Уникальный идентификатор : 253858536921792925615561741211031241771 (0xBEFB6033BF501094A3DC51470493042B)
Полное имя : D:\Reinbou.2017.P.WEB-DL.72Op_KOSHARA.mkv
Формат : Matroska
Версия формата : Version 2
Размер файла : 4,03 Гбайт
Продолжительность : 1 ч. 41 м.
Режим общего битрейта : Переменный
Общий поток : 5691 Кбит/сек
Дата кодирования : UTC 2019-03-20 16:42:38
Программа кодирования : mkvmerge v8.3.0 ('Over the Horizon') 64bit
Библиотека кодирования : libebml v1.3.1 + libmatroska v1.4.2

Видео
Идентификатор : 1
Формат : AVC
Формат/Информация : Advanced Video Codec
Профиль формата : High@L4.1
Параметр CABAC формата : Да
Параметр RefFrames формата : 4 кадра
Идентификатор кодека : V_MPEG4/ISO/AVC
Продолжительность : 1 ч. 41 м.
Вид битрейта : Переменный
Битрейт : 5305 Кбит/сек
Максимальный битрейт : 6000 Кбит/сек
Ширина : 1280 пикселей
Высота : 578 пикселей
Соотношение сторон : 2,2:1
Режим частоты кадров : Постоянный
Частота кадров : 23,976 (24000/1001) кадра/сек
Стандарт вещания : Component
Цветовое пространство : YUV
Субдискретизация насыщенности : 4:2:0
Битовая глубина : 8 бит
Тип развёртки : Прогрессивная
Бит/(Пиксели*Кадры) : 0.293
Размер потока : 3,68 Гбайт (91%)
Default : Да
Forced : Нет
Цветовой диапазон : Limited
Основные цвета : BT.709
Характеристики трансфера : BT.709
Коэффициенты матрицы : BT.709

Аудио
Идентификатор : 2
Формат : AC-3
Формат/Информация : Audio Coding 3
Расширение режима : CM (complete main)
Параметр Endianness формата : Big
Идентификатор кодека : A_AC3
Продолжительность : 1 ч. 41 м.
Вид битрейта : Постоянный
Битрейт : 384 Кбит/сек
Каналы : 2 канала
Расположение каналов : Front: L R
Частота : 48,0 КГц
Частота кадров : 31,250 кадров/сек (1536 spf)
Метод сжатия : С потерями
Размер потока : 279 Мбайт (7%)
Default : Да
Forced : Нет

pb.wtf



Скачать Радуга через торрент https://d.radikal.ru/d11/1903/e2/2032e85843a1.jpg Скачать фильм Радуга через торрент бесплантно в хорошем качестве Описание: Анхель Maсета не знает ни своего отца, ни человека по имени Пуро, ни всей истории. Всё меняется в тот день, когда он находит ... 10 10 3
Торрент: Зарегистрирован [2019-03-21 11:53] · скачан: 17 раз
Статус: T временная
Размер: 4.03 GB
Как cкачать? Как скачать Радуга через торрент | qTorrent

% Раздел Тема Автор DL S | L
Фильмы [HD 720p, 1080p] (Хороший звук DUB, MVO) [ 7.22 GB ] Змей и радуга / The Serpent and the Rainbow [1988 BDRip 720p] 4xMVO 3xDVO 3xAVO VO Леонид Ильич Скачать
7 | 0
T Фильмы (мультфильмы) cо спонсором показа (Новинки AVI/MKV) [ 1.37 GB ] Радуга / Reinbou [2017 WEB-DLRip] MVO ["Синема УС"] bober100 Скачать
1 | 0
Фильмы 2010 [ 1.45 GB ] По ту сторону черной радуги / Beyond the Black Rainbow [2010 BDRip двухголосый] PsYcho Скачать
1 | 0
Фильмы [HD 720p, 1080p] (Хороший звук DUB, MVO) [ 6.16 GB ] По ту сторону черной радуги / Beyond the Black Rainbow [2010 BDRip 720p двухголосый] VintMosina Скачать
1 | 0
Этнические порно фильмы [ 700 MB ] Радуга Джон Джона Flava / Jon Jon's Rainbow Of Flava [2010 Interracial Hardcore All Sex DVDRip Оригинал] SKAV Скачать
1 | 0
Аниме [HD 720p, 1080p] [ 9.46 GB ] Радуга: Семеро из шестой камеры / Rainbow: Nishakubou no shichinin [2010 мультфильм аниме BDRip ] DragonHard Скачать
1 | 0

28-11-2019 20:33  

Отключить всю рекламу на сайте

    Дорогой пользователь! Огромная просьба, поблагодарите релизера, оцените раздачу и оставьте свои комментарий, если Вы скачали Радуга через торрент бесплатно! Внесите свою лепту в развитие PiratBit!
    Комментировать посты могут только пользователи прошедшие не сложную регистрацию
    Показать сообщения:    

    Радуга через торрент
    Скачать бесплатно Радуга
    Радуга скачать торрент
    Радуга смотреть онлайн
    Cкачать фильм Радуга бесплатно
    Радуга скачать торрент в хорошем качестве
    Радуга смотреть онлайн бесплатно в хорошем качестве


    Вы не можете начинать темы
    Вы не можете отвечать на сообщения
    Вы не можете редактировать свои сообщения
    Вы не можете удалять свои сообщения
    Вы не можете голосовать в опросах
    Вы не можете прикреплять файлы к сообщениям
    Вы можете скачивать файлы