Мега распродажа FORZA HORIZON 4 ULTIMATE+ВСЕ DLC+ОНЛАЙН всего за 499р. 349 руб. (супер цена). Внимание количество ограничено!!!

iTunes

1+1

iTunes

мы

iTunes

1

1 сезон

Чернобыль

1 сезон

Ральф против интернета

Лицензия

ПШазам

8 сезон

Игра престолов

Лицензия

30
pack

ВАЖНО

!!Акция!!

Alien_RageХит недели

RePack

Resident Evil 21

ИГРА 18+

pack

RePack

Metro:Exodus

!!Акция!!

Alien_Rage

RePack

fifa19

RePack

Assassins Creed: Odyssey

RePack

NEED FOR SPEED™ PAYBACK

3 сезон

9 сезон

Бесстыжие 9 сезон

Все сериалы

все сериалы на PB.wtf

RePack

FAR CRY 5
Ребята, катастрофически не хватает 2730р. для оплаты серверов за ИЮНЬ (всвязи с блокировками трафик упал в 3 раза), 1-2р., выручайте.
  

Красивый мальчик / Beautiful Boy (Феликс ван Грунинген) [2018, Драма, биография, BD Remux 1080p] DUB [iTunes] pb.wtf

Красивый мальчик через торрент pb.wtf

Размер: 28.39 GB | Добавлен: 2 мес. 22 д. назад | Торрент скачан:5 раз
Скачать  

21-03-2019 12:33 Красивый мальчик Скачать торрент  

Красивый мальчик / Beautiful Boy Год выпуска: 2018
Страна: США
Жанр: Драма, биография
Продолжительность: 02:00:52
Перевод: Дублированный | iTunes
Субтитры: Русские (Full), английские

Режиссер: Феликс ван Грунинген

rating

В ролях:

Стив Карелл, Тимоти Шаламе, Мора Тирни, Кристиан Конвери, Окли Булл, Кейтлин Дивер, Эми Райан, Стефани Скотт, Джулиан Уоркс, Ке Лоуренс

Описание:

Дэвид Шефф переживает трагедию: его милый и очаровательный сын Ник стал наркоманом. Откуда взялась пагубная привычка? Ник растёт в любящей семье, он отлично учится, ни в чём не нуждается. Развод родителей прошёл спокойно. С матерью, живущей в Лос-Анджелесе, Ник общается до сих пор. Пытаясь найти ответы, Дэвид вспоминает, каким ребёнок был раньше - вдумчивым и красивым мальчиком.

Качество: BD Remux 1080p
Формат: MKV

Видео: MPEG-4 AVC, 1920x1080, 29.6 Mbit/s, 23.976 fps
Аудио#1: 48 kHz, AC3, 5.1, 384 Kbps | iTunes | RUS |
Аудио#2: 48 kHz, TrueHD, 5.1, 2905 Kbps | Оригинал | ENG |
Аудио#3: 48 kHz, AC3, 5.1, 640 Kbps | Оригинал | ENG |
скриншот  скриншот  скриншот  скриншот  скриншот  

General
Unique ID : 320095720238188075634835121432234704977 (0xF0D03179FDD2FD75830BCB154B324051)
Complete name : D:Video111Beautiful.Boy.2018.BDREMUX.1080p.seleZen.mkv
Format : Matroska
Format version : Version 4
File size : 28.4 GiB
Duration : 2 h 0 min
Overall bit rate mode : Variable
Overall bit rate : 33.6 Mb/s
Movie name : Beautiful Boy 2018 from селезень
Encoded date : UTC 2019-04-25 04:35:34
Writing application : mkvmerge v32.0.0 ('Astral Progressions') 64-bit
Writing library : libebml v1.3.7 + libmatroska v1.5.0

Video
ID : 1
Format : AVC
Format/Info : Advanced Video Codec
Format profile : High@L4.1
Format settings : CABAC / 4 Ref Frames
Format settings, CABAC : Yes
Format settings, ReFrames : 4 frames
Codec ID : V_MPEG4/ISO/AVC
Duration : 2 h 0 min
Bit rate mode : Variable
Bit rate : 29.6 Mb/s
Maximum bit rate : 35.0 Mb/s
Width : 1 920 pixels
Height : 1 080 pixels
Display aspect ratio : 16:9
Frame rate mode : Constant
Frame rate : 23.976 (24000/1001) FPS
Standard : NTSC
Color space : YUV
Chroma subsampling : 4:2:0
Bit depth : 8 bits
Scan type : Progressive
Bits/(Pixel*Frame) : 0.596
Stream size : 25.0 GiB (88%)
Language : English
Default : Yes
Forced : No
Color range : Limited
Color primaries : BT.709
Transfer characteristics : BT.709
Matrix coefficients : BT.709

Audio #1
ID : 2
Format : AC-3
Format/Info : Audio Coding 3
Commercial name : Dolby Digital
Codec ID : A_AC3
Duration : 2 h 0 min
Bit rate mode : Constant
Bit rate : 384 kb/s
Channel(s) : 6 channels
Channel layout : L R C LFE Ls Rs
Sampling rate : 48.0 kHz
Frame rate : 31.250 FPS (1536 SPF)
Bit depth : 16 bits
Compression mode : Lossy
Stream size : 332 MiB (1%)
Title : iTunes
Language : Russian
Service kind : Complete Main
Default : Yes
Forced : Yes

Audio #2
ID : 3
Format : MLP FBA
Format/Info : Meridian Lossless Packing FBA
Commercial name : Dolby TrueHD
Codec ID : A_TRUEHD
Duration : 2 h 0 min
Bit rate mode : Variable
Bit rate : 2 905 kb/s
Maximum bit rate : 5 232 kb/s
Channel(s) : 6 channels
Channel layout : L R C LFE Ls Rs
Sampling rate : 48.0 kHz
Frame rate : 1 200.000 FPS (40 SPF)
Compression mode : Lossless
Stream size : 2.45 GiB (9%)
Title : Original
Language : English
Default : No
Forced : No

Audio #3
ID : 4
Format : AC-3
Format/Info : Audio Coding 3
Commercial name : Dolby Digital
Codec ID : A_AC3
Duration : 2 h 0 min
Bit rate mode : Constant
Bit rate : 640 kb/s
Channel(s) : 6 channels
Channel layout : L R C LFE Ls Rs
Sampling rate : 48.0 kHz
Frame rate : 31.250 FPS (1536 SPF)
Bit depth : 16 bits
Compression mode : Lossy
Stream size : 553 MiB (2%)
Language : English
Service kind : Complete Main
Default : No
Forced : No

Text #1
ID : 5
Format : UTF-8
Codec ID : S_TEXT/UTF8
Codec ID/Info : UTF-8 Plain Text
Duration : 1 h 59 min
Bit rate : 79 b/s
Count of elements : 1387
Stream size : 69.6 KiB (0%)
Title : Full
Language : Russian
Default : No
Forced : No

Text #2
ID : 6
Format : UTF-8
Codec ID : S_TEXT/UTF8
Codec ID/Info : UTF-8 Plain Text
Duration : 1 h 59 min
Bit rate : 44 b/s
Count of elements : 1414
Stream size : 38.8 KiB (0%)
Title : Full
Language : English
Default : No
Forced : No

Text #3
ID : 7
Format : UTF-8
Codec ID : S_TEXT/UTF8
Codec ID/Info : UTF-8 Plain Text
Duration : 1 h 59 min
Bit rate : 59 b/s
Count of elements : 1960
Stream size : 51.9 KiB (0%)
Title : SDH
Language : English
Default : No
Forced : No

Menu
00:00:00.000 : en:Chapter 01
00:15:41.523 : en:Chapter 02
00:30:48.596 : en:Chapter 03
00:44:45.683 : en:Chapter 04
01:00:38.593 : en:Chapter 05
01:18:15.524 : en:Chapter 06
01:36:07.136 : en:Chapter 07
01:51:04.157 : en:Chapter 08
pb.wtf



Скачать Красивый мальчик через торрент http://img14.lostpic.net/2019/04/25/984307533ccb53fd71451420df114452.jpg Скачать фильм Красивый мальчик через торрент бесплантно в хорошем качестве Описание: Дэвид Шефф переживает трагедию: его милый и очаровательный сын Ник стал наркоманом. Откуда взялась пагубная привычка? Ник растёт ... 10 10 3
Торрент: Зарегистрирован [2019-04-25 05:12] · скачан: 5 раз
Статус: √ проверено
Размер: 28.39 GB
Как cкачать? Как скачать Красивый мальчик через торрент | qTorrent

% Раздел Тема Автор DL S | L
Фильмы 2018 [DVDrip, WEB-DLRip, HDrip] (DUB, MVO) [ 2.13 GB ] Красивый мальчик / Beautiful Boy [2018 биография BDRip] bober100 Скачать
7 | 0
Фильмы [HD 720p, 1080p] (Хороший звук DUB, MVO) [ 13.08 GB ] Красивый мальчик / Beautiful Boy [2018 биография BDRip 1080p] bober100 Скачать
1 | 0
Фильмы [HD 720p, 1080p] (Хороший звук DUB, MVO) [ 6.89 GB ] Красивый мальчик / Beautiful Boy [2018 биография BDRip 720p] bober100 Скачать
3 | 0
Фильмы 2018 [DVDrip, WEB-DLRip, HDrip] (DUB, MVO) [ 1.46 GB ] Красивый мальчик / Beautiful Boy [2018 биография BDRip] bober100 Скачать
1 | 0
T Фильмы 2018 [DVDrip, WEB-DLRip, HDrip] (DUB, MVO) [ 2.42 GB ] Красивый мальчик / Beautiful Boy [2018 биография BDRip-AVC] MVO [HDRezka Studio] bober100 Скачать
5 | 0
T Фильмы [HD 720p, 1080p] (Хороший звук DUB, MVO) [ 11.68 GB ] Красивый мальчик / Beautiful Boy [2018 биография BDRip 1080p] MVO [HDRezka Studio] bober100 Скачать
1 | 0


>> Регистрируемся здесь <<






Отзывы и комментарии о схеме читаем и пишем здесь: ---> Отзывы и комментарии о схеме

Новые благодарочки в телеграм довольных пользователей:
скриншот   скриншот   скриншот   скриншот   скриншот
    Дорогой пользователь! Огромная просьба, поблагодарите релизера, оцените раздачу и оставьте свои комментарий, если Вы скачали Красивый мальчик через торрент бесплатно! Внесите свою лепту в развитие PiratBit!
    Комментировать посты могут только пользователи прошедшие не сложную регистрацию
    Показать сообщения:    

    Красивый мальчик через торрент
    Скачать бесплатно Красивый мальчик
    Красивый мальчик скачать торрент
    Красивый мальчик смотреть онлайн
    Cкачать фильм Красивый мальчик бесплатно
    Красивый мальчик скачать торрент в хорошем качестве
    Красивый мальчик смотреть онлайн бесплатно в хорошем качестве


    Вы не можете начинать темы
    Вы не можете отвечать на сообщения
    Вы не можете редактировать свои сообщения
    Вы не можете удалять свои сообщения
    Вы не можете голосовать в опросах
    Вы не можете прикреплять файлы к сообщениям
    Вы можете скачивать файлы