2 сезон

iTunes

MVO

1

2 сезон

iTunes

iTunes

1 сезон

RePack

30

Ultimate

ВАЖНО

ИГРА 18+

pack

RePack

MK11
pack

Легкие деньги

RePack

jed

RePack

fifa19

RePack

RDR2

RePack

NEED FOR SPEED™ PAYBACK

4 сезон

9 сезон

Бесстыжие 9 сезон

Все сериалы

все сериалы на PB.wtf

RePack

FAR CRY 5

Anonymous, добрый день, мы не успеваем собрать деньги на оплату серверов за декабрь и январь, помогите нам пожалуйста в это трудное время. В качестве благодарности мы отключим Вам всю рекламу на сайте (укажите свой ник в строку Ваше имя)!

×
  
Magnet ссылка

Моджин / Упырь / Моцзинь. Потерянная легенда в 3Д / Mojin - The Lost Legend 3D (Уэршань / Wuershan) [2015, приключения, фэнтези, боевик, триллер, BDRip, 1080p] OverUnder / Вертикальная стереопара DVO pb.wtf

Моджин через торрент pb.wtf

Размер: 27.29 GB | Добавлен: 1 год 10 мес. назад | Торрент скачан:7 раз
Скачать  

21-03-2019 12:39 Моджин Скачать торрент  

Моджин / Упырь / Моцзинь. Потерянная легенда / Mojin - The Lost Legend / Xun Long Jue
IMAX версия
Год выпуска: 2015
Страна: Китай (Wanda Pictures, Huayi Brothers, Enlight Pictures, Meridian Entertainment, Mongke Tengri Pictures, CKF Pictures)
Жанр: приключения, фэнтези, боевик, триллер
Продолжительность: 02:05:22

Перевод: Любительский двухголосый закадровый (Ворон и Sandairina)
Русские субтитры: есть
Режиссер: Уэршань / Wuershan

В ролях: Анджела Бейби, Шу Ци, Чэнь Кунь, Кит Коллеа, Alex Eckstorm, Marianna German, Sandra Gumuzzio, Бо Хуан, Лори Келлогг, Jonathan Kos-Read, Omar Krystion, ...

Описание: В 1988 году трое модзиней (расхитителей гробниц) — Ху Баи, Ван Кайсюань и Ширли Ян — бросают заниматься грабежами захоронений и переезжают в Нью-Йорк. Хотя Баи и Ширли связывают романтические отношения, Ван чувствует, что великие модзини заслуживают лучшего финансового положения и, приняв предложение корпорации найти захоронение одной богини, возвращается на родину. Пытаясь спасти друга от неприятностей, Баи и Ширли отправляются следом за ним.

Сэмпл: http://sendfile.su/1483489

Качество: BDrip, 1080p
Контейнер: MKV
Формат 3D: OverUnder / Вертикальная стереопара
Порядок ракурсов: левый ракурс первый
Видео кодек: x264
Аудио кодек: AC3
Видео: AVC / High@L5.0 / 23,976 fps / 1920х2160 / 29,9 Мбит/сек
Аудио: Русский / AC3 / 48 KHz / 5.1 ch / 640 Кбит/сек(Ворон и Sandairina)
Субтитры SRT: русские форсированные

ВНИМАНИЕ ! На встроенных ТВ-плеерах работать не будет!!!

ТВ Samsung в названии которого есть надпись Ultra HD , и LG Ultra HD 800 серии, LG C6P, Xiaomi Mi TV 2 воспроизводят полные стереопары встроенными плеерами
Железные плееры на которых воспроизводятся полные стереопары:Popcorn C-200 , Dune HD Smart D1 , Dune HD DUO , Dune HD Smart H1 , Dune HD Smart B1 , Dune HD Max , Dune HD TV-303D, Dune HD TV-102, Dune HD Base 3D, Philips HMP7001, Aura HD, MECOOL BB2
Чтобы изображение было на весь экран в плеере выставляем, если рип 1920х1600 - то выставляем 2.35:1 , если 1920х2160 - то выставляем 16:9
Общее
Уникальный идентификатор : 250192105067752816758826311045362176417 (0xBC393F27B9F33C0CA78D4059B4E351A1)
Полное имя : F:\закачки\Mojin - The Lost Legend.Rip by SeRoGa00.mkv
Формат : Matroska
Версия формата : Version 2
Размер файла : 27,3 Гбайт
Продолжительность : 2 ч. 5 м.
Общий поток : 31,2 Мбит/сек
Дата кодирования : UTC 2019-03-21 11:22:19
Программа кодирования : mkvmerge v3.4.0 ('Rapunzel') сборка от May 15 2010 09:38:20
Библиотека кодирования : libebml v0.8.0 + libmatroska v0.9.0

Видео
Идентификатор : 1
Формат : AVC
Формат/Информация : Advanced Video Codec
Профиль формата : High@L5.0
Параметр CABAC формата : Да
Параметр ReFrames формата : 4 кадра
Идентификатор кодека : V_MPEG4/ISO/AVC
Продолжительность : 2 ч. 5 м.
Битрейт : 29,9 Мбит/сек
Ширина : 1920 пикселей
Высота : 2160 пикселей
Соотношение сторон : 0,889
Частота кадров : 23,976 кадра/сек
Цветовое пространство : YUV
Субдискретизация насыщенности : 4:2:0
Битовая глубина : 8 бит
Тип развёртки : Прогрессивная
Бит/(Пиксели*Кадры) : 0.301
Размер потока : 26,2 Гбайт (96%)
Заголовок : Rip by SeRoGa00
Библиотека кодирования : x264 core 155 r2901 7d0ff22
Настройки программы : cabac=1 / ref=4 / deblock=1:-3:-3 / analyse=0x3:0x113 / me=umh / subme=10 / psy=1 / psy_rd=1.00:0.15 / mixed_ref=1 / me_range=24 / chroma_me=1 / trellis=2 / 8x8dct=1 / cqm=0 / deadzone=21,11 / fast_pskip=1 / chroma_qp_offset=-3 / threads=18 / lookahead_threads=6 / sliced_threads=0 / nr=0 / decimate=0 / interlaced=0 / bluray_compat=0 / constrained_intra=0 / bframes=10 / b_pyramid=2 / b_adapt=2 / b_bias=0 / direct=3 / weightb=1 / open_gop=0 / weightp=2 / keyint=250 / keyint_min=23 / scenecut=40 / intra_refresh=0 / rc_lookahead=60 / rc=crf / mbtree=1 / crf=16.5 / qcomp=0.60 / qpmin=10 / qpmax=69 / qpstep=4 / vbv_maxrate=40000 / vbv_bufsize=40000 / crf_max=0.0 / nal_hrd=none / filler=0 / ip_ratio=1.40 / aq=1:1.00
Язык : English
Default : Нет
Forced : Нет

Аудио
Идентификатор : 2
Формат : AC-3
Формат/Информация : Audio Coding 3
Расширение режима : CM (complete main)
Параметр Endianness формата : Big
Идентификатор кодека : A_AC3
Продолжительность : 2 ч. 5 м.
Вид битрейта : Постоянный
Битрейт : 640 Кбит/сек
Каналы : 6 каналов
Расположение каналов : Front: L C R, Side: L R, LFE
Частота : 48,0 КГц
Битовая глубина : 16 бит
Метод сжатия : С потерями
Размер потока : 574 Мбайт (2%)
Язык : Russian
Default : Да
Forced : Нет

Текст
Идентификатор : 3
Формат : UTF-8
Идентификатор кодека : S_TEXT/UTF8
Идентификатор кодека/Информация : UTF-8 Plain Text
Default : Да
Forced : Нет

Меню
00:00:00.000 : :1
00:10:12.695 : :2
00:18:31.235 : :3
00:29:08.413 : :4
00:40:18.499 : :5
00:50:08.422 : :6
01:00:00.263 : :7
01:08:15.758 : :8
01:19:31.475 : :9
01:28:34.226 : :10
01:39:50.776 : :11
01:49:38.363 : :12
01:54:43.460 : :13
скриншот  

скриншот  

скриншот  

скриншот  

скриншот  

скриншот  

скриншот  
pb.wtf



Скачать Моджин через торрент https://c.radikal.ru/c04/1903/4f/dd53e81c02c7.png Скачать фильм Моджин через торрент бесплантно в хорошем качестве Описание: В 1988 году трое модзиней (расхитителей гробниц) — Ху Баи, Ван Кайсюань и Ширли Ян — бросают заниматься грабежами захоронений и ... 5 10 1
Торрент: Зарегистрирован [2019-03-21 12:39] · скачан: 7 раз
Статус: √ проверено
Размер: 27.29 GB
Как cкачать? Как скачать Моджин через торрент | UTorrent

28-11-2019 20:33  

Отключить всю рекламу на сайте

    Дорогой пользователь! Огромная просьба, поблагодарите релизера, оцените раздачу и оставьте свои комментарий, если Вы скачали Моджин через торрент бесплатно! Внесите свою лепту в развитие PiratBit!
    Комментировать посты могут только пользователи прошедшие не сложную регистрацию
    Показать сообщения:    

    Моджин через торрент
    Скачать бесплатно Моджин
    Моджин скачать торрент
    Моджин смотреть онлайн
    Cкачать фильм Моджин бесплатно
    Моджин скачать торрент в хорошем качестве
    Моджин смотреть онлайн бесплатно в хорошем качестве


    Вы не можете начинать темы
    Вы не можете отвечать на сообщения
    Вы не можете редактировать свои сообщения
    Вы не можете удалять свои сообщения
    Вы не можете голосовать в опросах
    Вы не можете прикреплять файлы к сообщениям
    Вы можете скачивать файлы