Ссылка на приватное зеркало нашего сайта всего за 1$. Внимание количество ограничено!!!

2 сезон

iTunes

1 сезон

1

iTunes

iTunes

iTunes

1 сезон

RePack

30

ИГРА 18+

pack

ВАЖНО

!!Акция!!

Alien_RageХит недели

RePack

MK11
pack

Забери бонус

RePack

jed

!!Акция!!

Alien_Rage

RePack

fifa19

RePack

Assassins Creed: Odyssey

RePack

NEED FOR SPEED™ PAYBACK

4 сезон

9 сезон

Бесстыжие 9 сезон

Все сериалы

все сериалы на PB.wtf

RePack

FAR CRY 5
  

ВМаяковский (Александр Шейн) [2019, драма, биография, TS 720p] pb.wtf

ВМаяковский через торрент pb.wtf

Размер: 3.29 GB | Добавлен: 1 год 7 мес. назад | Торрент скачан:47 раз
Скачать  

21-03-2019 14:41 ВМаяковский Скачать торрент  

ВМаяковскийГод выпуска: 2019
Страна: Россия
Жанр: драма, биография
Продолжительность: 01:56:11
Перевод: Не требуется
Субтитры: отсутствуют

Режиссер: Александр Шейн

rating

В ролях:

Чулпан Хаматова, Юрий Колокольников, Людмила Максакова, Евгений Миронов, Михаил Ефремов, Никита Ефремов, Антон Адасинский, Альбертс Альбертс, Петр Верзилов, Мария Поезжаева

Описание:

Взгляд на историю сквозь призму настоящего. Артисты на глазах у зрителя перевоплощаются в героев фильма (поэта Владимира Маяковского; женщин, любимых им и оставивших его; друзей, восхищавшихся им и отступивших от него; безжалостных «рыцарей Революции», провозгласивших его своим знаменем) и ведут зрителя «в» Маяковского, заставляя прожить его любовную, творческую и человеческую драму как свою собственную.

Качество: TS 720p
Формат: MKV

Видео: h.264, 3 593 Кбит/с, 1280x536
Аудио: Русский, (AC3, 2 ch, 384 Кбит/с)
скриншот   скриншот   скриншот   скриншот   скриншот  

Общее
Уникальный идентификатор : 171138183980177200182416297496836768734 (0x80C003EBB83FB96AA693A1A942EF03DE)
Полное имя : D:\MayaKoFFsky.2O19.O.TS.72Op.mkv
Формат : Matroska
Версия формата : Version 2
Размер файла : 3,29 Гбайт
Продолжительность : 1 ч. 56 м.
Режим общего битрейта : Переменный
Общий поток : 4057 Кбит/сек
Дата кодирования : UTC 2019-03-18 02:48:27
Программа кодирования : mkvmerge v8.3.0 ('Over the Horizon') 64bit
Библиотека кодирования : libebml v1.3.1 + libmatroska v1.4.2

Видео
Идентификатор : 1
Формат : AVC
Формат/Информация : Advanced Video Codec
Профиль формата : High@L4.1
Параметр CABAC формата : Да
Параметр RefFrames формата : 4 кадра
Идентификатор кодека : V_MPEG4/ISO/AVC
Продолжительность : 1 ч. 56 м.
Вид битрейта : Переменный
Битрейт : 3593 Кбит/сек
Максимальный битрейт : 4000 Кбит/сек
Ширина : 1280 пикселей
Высота : 536 пикселей
Соотношение сторон : 2,40:1
Режим частоты кадров : Постоянный
Частота кадров : 23,976 (24000/1001) кадра/сек
Стандарт вещания : Component
Цветовое пространство : YUV
Субдискретизация насыщенности : 4:2:0
Битовая глубина : 8 бит
Тип развёртки : Прогрессивная
Бит/(Пиксели*Кадры) : 0.218
Размер потока : 2,92 Гбайт (89%)
Default : Да
Forced : Нет
Цветовой диапазон : Limited
Основные цвета : BT.709
Характеристики трансфера : BT.709
Коэффициенты матрицы : BT.709

Аудио
Идентификатор : 2
Формат : AC-3
Формат/Информация : Audio Coding 3
Расширение режима : CM (complete main)
Параметр Endianness формата : Big
Идентификатор кодека : A_AC3
Продолжительность : 1 ч. 56 м.
Вид битрейта : Постоянный
Битрейт : 384 Кбит/сек
Каналы : 2 канала
Расположение каналов : Front: L R
Частота : 48,0 КГц
Частота кадров : 31,250 кадров/сек (1536 spf)
Метод сжатия : С потерями
Размер потока : 319 Мбайт (9%)
Default : Да
Forced : Нет

pb.wtf



Скачать ВМаяковский через торрент https://c.radikal.ru/c36/1903/27/380ad1b3530f.jpg Скачать фильм ВМаяковский через торрент бесплантно в хорошем качестве Описание: Взгляд на историю сквозь призму настоящего. Артисты на глазах у зрителя перевоплощаются в героев фильма (поэта Владимира ... 10 10 5
Торрент: Зарегистрирован [2019-03-21 14:41] · скачан: 47 раз
Статус: T временная
Размер: 3.29 GB
Как cкачать? Как скачать ВМаяковский через торрент | qTorrent

% Раздел Тема Автор DL S | L
T Наши фильмы (мультфильмы) cо спонсором показа (Новинки AVI/MKV) [ 1.46 GB ] ВМаяковский [2019 биография TS] bober100 Скачать
1 | 0

28-11-2019 20:33  

Отключить всю рекламу на сайте

21-03-2019 14:50 ВМаяковский Скачать торрент  

МАНЬЯКОВСКИЙ... pb.wtf



02-04-2019 22:26 ВМаяковский Скачать торрент  

bolvi68 писал(а):

МАНЬЯКОВСКИЙ...

Каков айкью твой? - хочется спросить...pb.wtf



    Дорогой пользователь! Огромная просьба, поблагодарите релизера, оцените раздачу и оставьте свои комментарий, если Вы скачали ВМаяковский через торрент бесплатно! Внесите свою лепту в развитие PiratBit!
    Комментировать посты могут только пользователи прошедшие не сложную регистрацию
    Показать сообщения:    

    ВМаяковский через торрент
    Скачать бесплатно ВМаяковский
    ВМаяковский скачать торрент
    ВМаяковский смотреть онлайн
    Cкачать фильм ВМаяковский бесплатно
    ВМаяковский скачать торрент в хорошем качестве
    ВМаяковский смотреть онлайн бесплатно в хорошем качестве


    Вы не можете начинать темы
    Вы не можете отвечать на сообщения
    Вы не можете редактировать свои сообщения
    Вы не можете удалять свои сообщения
    Вы не можете голосовать в опросах
    Вы не можете прикреплять файлы к сообщениям
    Вы можете скачивать файлы