Достать ножи: Стеклянная луковица

MVO

Добыча

Дубляж

Уэнсдэй

1 сезон

Тор

Дубляж

13 клиническая

1 сезон

Жестокая ночь

MVO

Одни из нас

1 сезон

Deluxe

pack

Рекомендуем

30

Пиратка

ВАЖНО

ВАЖНО

Ghostwire

Пиратка

jed

RePack

nioh2

RePack

RDR2

RePack

NEED FOR SPEED™ PAYBACK

RePack

скачать торрент

Кинопоиск HD

Острые козырьки 6 сезон

6 сезон

FAR CRY 6

RePack

скачать торрент

Лицензия

скачать торрент

MVO

1

1 сезон

скачать торрент

1 сезон

скачать торрент

Лицензия

  

Начни сначала / Second Act (Питер Сигал) [2018, мелодрама, комедия, BDRip 1080p] [Дубляж] [iTunes]

Начни сначала через торрент pb.wtf

Размер: 12.96 GB | Добавлен: 3 года 10 мес. назад | Торрент скачан:620 раз
Смотреть онлайн | Скачать | Поддержите нас   

21-03-2019 15:37 Начни сначала Скачать торрент  

Начни сначала / Second Act




Год выхода : 2018
Страна : США
Жанр : мелодрама, комедия
Продолжительность : 01:44:01
Перевод : Профессиональный (полное дублирование) [iTunes]

Режиссер : Питер Сигал

В главных ролях : Дженнифер Лопез, Ванесса Энн Хадженс, Леа Ремини, Трит Уильямс, Майло Вентимилья, Аннали Эшфорд, Шарлин Йи, Алан Айсинберг, Фредди Строма, Дэйв Фоли

Описание : Когда Майя уже перестала надеяться, что ее мечты осуществятся, она случайно получает работу в большой корпорации. Теперь у нее есть шанс доказать снобам с Мэдисон Авеню, что врожденный талант и блестящий креатив так же важны, как и диплом престижного университета. И не имеет значения, что у тебя за спиной, - ведь никогда не поздно начать сначала!
rating

Качество : BDRip 1080p
Формат видео : MKV
Видео : MPEG-4 AVC, 15900 Кбит/с, 1920x804
Звук : Русский (AC3, 6 ch, 384 Кбит/с)
Звук : Английский (DTS, 6 ch, 1510 Кбит/с)
Субтитры : Английские
General
Unique ID : 254751041569118429076104784092112063740 (0xBFA7441421A132DAF7DE32217E438CFC)
Complete name : F:\Second.Act.2018.BDRip.1080p.ELEKTRI4KA.UNIONGANG.mkv
Format : Matroska
Format version : Version 4
File size : 13.0 GiB
Duration : 1 h 44 min
Overall bit rate : 17.8 Mb/s
Encoded date : UTC 2019-03-21 11:36:33
Writing application : mkvmerge v28.0.0 ('Voice In My Head') 64-bit
Writing library : libebml v1.3.6 + libmatroska v1.4.9

Video
ID : 1
Format : AVC
Format/Info : Advanced Video Codec
Format profile : [email protected]
Format settings : CABAC / 4 Ref Frames
Format settings, CABAC : Yes
Format settings, ReFrames : 4 frames
Codec ID : V_MPEG4/ISO/AVC
Duration : 1 h 44 min
Bit rate : 15.9 Mb/s
Width : 1 920 pixels
Height : 804 pixels
Display aspect ratio : 2.40:1
Frame rate mode : Constant
Frame rate : 23.976 (24000/1001) FPS
Color space : YUV
Chroma subsampling : 4:2:0
Bit depth : 8 bits
Scan type : Progressive
Bits/(Pixel*Frame) : 0.431
Stream size : 11.6 GiB (89%)
Writing library : x264 core 155 r2867+74 66b5600 t_mod_Custom_2 [[email protected] X86_64]
Encoding settings : cabac=1 / ref=4 / deblock=1:-3:-3 / analyse=0x3:0x133 / me=umh / subme=10 / psy=1 / fade_compensate=0.00 / psy_rd=0.95:0.10 / mixed_ref=1 / me_range=48 / chroma_me=1 / trellis=2 / 8x8dct=1 / cqm=0 / deadzone=21,11 / fast_pskip=0 / chroma_qp_offset=-4 / threads=18 / lookahead_threads=3 / sliced_threads=0 / nr=0 / decimate=1 / interlaced=0 / bluray_compat=0 / constrained_intra=0 / fgo=0 / bframes=8 / b_pyramid=2 / b_adapt=2 / b_bias=0 / direct=3 / weightb=1 / open_gop=0 / weightp=2 / keyint=250 / keyint_min=23 / scenecut=40 / intra_refresh=0 / rc_lookahead=60 / rc=crf / mbtree=0 / crf=20.0000 / qcomp=0.70 / qpmin=0:0:0 / qpmax=69:69:69 / qpstep=4 / vbv_maxrate=35000 / vbv_bufsize=35000 / crf_max=0.0 / nal_hrd=none / filler=0 / ip_ratio=1.40 / pb_ratio=1.30 / aq=3:1.00 / aq-sensitivity=10.00 / aq-factor=1.00:1.00:1.00 / aq2=0 / aq3=2:[0.50:0.50]:[0.50:0.50]:[0.50:0.50]:[0.50:0.50] / aq3-sensitivity=10.00 / aq3-factor=[1.00:1.00]:[1.00:1.00]:[1.00:1.00] / aq3-boundary=192:64:24
Language : English
Default : Yes
Forced : No

Audio #1
ID : 2
Format : AC-3
Format/Info : Audio Coding 3
Commercial name : Dolby Digital
Codec ID : A_AC3
Duration : 1 h 44 min
Bit rate mode : Constant
Bit rate : 384 kb/s
Channel(s) : 6 channels
Channel layout : L R C LFE Ls Rs
Sampling rate : 48.0 kHz
Frame rate : 31.250 FPS (1536 SPF)
Bit depth : 16 bits
Compression mode : Lossy
Stream size : 286 MiB (2%)
Language : Russian
Service kind : Complete Main
Default : Yes
Forced : No

Audio #2
ID : 3
Format : DTS
Format/Info : Digital Theater Systems
Codec ID : A_DTS
Duration : 1 h 44 min
Bit rate mode : Constant
Bit rate : 1 509 kb/s
Channel(s) : 6 channels
Channel layout : C L R Ls Rs LFE
Sampling rate : 48.0 kHz
Frame rate : 93.750 FPS (512 SPF)
Bit depth : 24 bits
Compression mode : Lossy
Stream size : 1.10 GiB (8%)
Language : English
Default : No
Forced : No

Text
ID : 4
Format : UTF-8
Codec ID : S_TEXT/UTF8
Codec ID/Info : UTF-8 Plain Text
Duration : 1 h 36 min
Bit rate : 82 b/s
Count of elements : 1731
Stream size : 57.9 KiB (0%)
Language : English
Default : No
Forced : No

Menu
00:00:00.000 : :绗?01 绔?
00:07:09.721 : :绗?02 绔?
00:13:40.403 : :绗?03 绔?
00:17:51.529 : :绗?04 绔?
00:22:17.378 : :绗?05 绔?
00:27:38.615 : :绗?06 绔?
00:33:52.197 : :绗?07 绔?
00:38:46.074 : :绗?08 绔?
00:45:02.325 : :绗?09 绔?
00:49:28.549 : :绗?10 绔?
00:55:15.229 : :绗?11 绔?
00:59:48.919 : :绗?12 绔?
01:04:46.299 : :绗?13 绔?
01:10:35.064 : :绗?14 绔?
01:15:03.874 : :绗?15 绔?
01:20:56.894 : :绗?16 绔?
01:25:36.923 : :绗?17 绔?
01:29:41.459 : :绗?18 绔?
01:33:19.427 : :绗?19 绔?
01:37:56.704 : :绗?20 绔?
скриншот  скриншот  скриншот  



Скачать Начни сначала через торрент https://c.radikal.ru/c33/1901/1e/cf13ea35c938.jpg Скачать, смотреть онлайн Начни сначала бесплантно в хорошем качестве Описание : Когда Майя уже перестала надеяться, что ее мечты осуществятся, она случайно получает работу в большой корпорации. Теперь у нее ... 9.2 10 11
Info! Золотая раздача, скачанное не засчитывается.
Торрент: Зарегистрирован [2019-03-21 15:37] · скачан: 620 раз
Статус: √ проверено
Размер: 12.96 GB
Как cкачать? Как скачать Начни сначала через торрент | UTorrent

% Раздел Тема Автор DL S | L
Фильмы 2018 [DVDrip, WEB-DLRip, HDrip] (DUB, MVO) [ 710 MB ] Начни сначала / Second Act | iTunes | HDRip, Дубляж iTunes coc900 Скачать
1 | 0
Фильмы 2018 [DVDrip, WEB-DLRip, HDrip] (DUB, MVO) [ 1.42 GB ] Начни сначала / Second Act | Лицензия | BDRip Twi7ter Скачать
1 | 0
Фильмы (Blu-ray, BD-Remux, HDDVD) [ 25.74 GB ] Начни сначала / Second Act | iTunes | BD Remux 1080p bober100 Скачать
1 | 0
Фильмы 2018 [DVDrip, WEB-DLRip, HDrip] (DUB, MVO) [ 1.46 GB ] Начни сначала / Second Act | iTunes | HDRip bober100 Скачать
2 | 0
T Фильмы 2018 [DVDrip, WEB-DLRip, HDrip] (DUB, MVO) [ 1.37 GB ] Начни сначала / Second Act | HDRezka Studio | HDRip Enigma2010 Скачать
1 | 0
T Фильмы 2018 [DVDrip, WEB-DLRip, HDrip] (DUB, MVO) [ 1.37 GB ] Начни сначала / Second Act | HDRezka Studio | DLRip Enigma2010 Скачать
1 | 0

28-11-2019 20:33  


Отключить вcю реклaмy на сайте, в т.ч. и в плеере онлайн просмотра!

    Дорогой пользователь! Огромная просьба, поблагодарите релизера, оцените раздачу и оставьте свои комментарий, если Вы скачали Начни сначала через торрент бесплатно!!
    Комментировать посты могут только пользователи прошедшие не сложную регистрацию
    Показать сообщения:    


    Начни сначала через торрент
    Скачать бесплатно Начни сначала
    Начни сначала скачать торрент
    Начни сначала смотреть онлайн
    Cкачать фильм Начни сначала бесплатно
    Начни сначала скачать торрент в хорошем качестве
    Начни сначала смотреть онлайн бесплатно в хорошем качестве
    Вы не можете начинать темы
    Вы не можете отвечать на сообщения
    Вы не можете редактировать свои сообщения
    Вы не можете удалять свои сообщения
    Вы не можете голосовать в опросах
    Вы не можете прикреплять файлы к сообщениям
    Вы можете скачивать файлы
    Начни сначала / Second Act [2018, мелодрама, комедия, BDRip 1080p] [Дубляж] [iTunes] смотреть онлайн, скачать торрент picoco.icu