Ссылка на приватное зеркало нашего сайта всего за 1$. Внимание количество ограничено!!!

2 сезон

iTunes

1 сезон

1

2 сезон

2 сезон

iTunes

1 сезон

RePack

30

Новинка

ВАЖНО

ИГРА 18+

pack

RePack

MK11
pack

Забери бонус

RePack

jed

!!Акция!!

Alien_Rage

RePack

fifa19

RePack

Assassins Creed: Odyssey

RePack

NEED FOR SPEED™ PAYBACK

4 сезон

9 сезон

Бесстыжие 9 сезон

Все сериалы

все сериалы на PB.wtf

RePack

FAR CRY 5
  

Хорошая борьба / Правое дело / The Good Fight / Сезон: 3 / Серии: 1-10 из 10 (Брук Кеннеди) [2019, драма, WEB-DLRip] MVO [Jaskier] pb.wtf

Хорошая борьба через торрент pb.wtf

Размер: 6.45 GB | Добавлен: 1 год 4 мес. назад | Торрент скачан:10 раз
Скачать  

21-03-2019 18:11 Хорошая борьба Скачать торрент  

Правое дело / The Good Fight

Год выпуска: 2019
Страна: США
Жанр: драма
Продолжительность: ~ 00:55:00
Перевод: Профессиональный (многоголосый закадровый) | Jaskier
Субтитры: отсутствуют

Режиссёр: Брук Кеннеди

В ролях: Кристин Барански, Джастин Барта, Каш Джамбо, Роуз Лесли, Делрой Линдо, Сара Стил, Эрика Н. Тэйзел

Описание: Спин-офф сериала "Хорошая Жена", в котором ключевыми героями станут Диана Локхарт и Лукка Квин, которых мы знаем ещё со времён "Жены". Так же нас ждёт встреча с новыми, не менее интересными персонажами, и возвращение старых знакомых. Мы вновь совершим погружение в мир американской и мировой юриспруденции, политики, корпоративных интриг и человеческих страстей. Всё то, за что вы любили "Хорошую Жену" присутствует и в "Хорошей Борьбе", плюс много нового, свежего, увлекательного.



Качество: WEB-DLRip
Формат: AVI

Видео: XviD, ~ 1400 kbps, 720x304, 24.000 fps
Аудио 1: MP3, 48,0 КГц, 2 ch, 128 kbps - RUS
Аудио 2: MP3, 48,0 КГц, 2 ch, 128 kbps - ENG


Реклама: Присутствует звуковая (два раза в начале и конце по 12 сек.)
Общее
Полное имя                               : V:\The.Good.Fight. Season 3 (WEB-DL l 400p l JASKiER)\The.Good.Fight.S03E01.400p.JASKiER.avi
Формат                                   : AVI
Формат/Информация                        : Audio Video Interleave
Размер файла                             : 685 Мбайт
Продолжительность                        : 57 м.
Общий поток                              : 1670 Кбит/сек
Программа кодирования                    : VirtualDubMod 1.5.10.3 | www.virtualdub-fr.org || (build 2550/release)
Библиотека кодирования                   : VirtualDubMod build 2550/release

Видео
Идентификатор                            : 0
Формат                                   : MPEG-4 Visual
Профиль формата                          : Advanced Simple@L5
Параметр BVOP формата                    : 2
Параметр QPel формата                    : Нет
Параметр GMC формата                     : Без точки перехода
Параметр матрицы формата                 : Выборочная
Идентификатор кодека                     : XVID
Идентификатор кодека/Подсказка           : XviD
Продолжительность                        : 57 м.
Битрейт                                  : 1400 Кбит/сек
Ширина                                   : 720 пикселей
Высота                                   : 304 пикселя
Соотношение сторон                       : 2,35:1
Частота кадров                           : 24,000 кадра/сек
Цветовое пространство                    : YUV
Субдискретизация насыщенности            : 4:2:0
Битовая глубина                          : 8 бит
Тип развёртки                            : Прогрессивная
Метод сжатия                             : С потерями
Бит/(Пиксели*Кадры)                      : 0.266
Размер потока                            : 574 Мбайт (84%)
Библиотека кодирования                   : XviD 73

Аудио #1
Идентификатор                            : 1
Формат                                   : MPEG Audio
Версия формата                           : Version 1
Профиль формата                          : Layer 3
Режим                                    : Joint stereo
Расширение режима                        : MS Stereo
Идентификатор кодека                     : 55
Идентификатор кодека/Подсказка           : MP3
Продолжительность                        : 57 м.
Вид битрейта                             : Постоянный
Битрейт                                  : 128 Кбит/сек
Каналы                                   : 2 канала
Частота                                  : 48,0 КГц
Метод сжатия                             : С потерями
Размер потока                            : 52,5 Мбайт (8%)
Выравнивание                             : Соединение по промежуткам
Продолжительность промежутка             : 42  мс. (1,00 видеокадр)
Время предзагрузки промежутка            : 504  мс.

Аудио #2
Идентификатор                            : 2
Формат                                   : MPEG Audio
Версия формата                           : Version 1
Профиль формата                          : Layer 3
Режим                                    : Joint stereo
Расширение режима                        : MS Stereo
Идентификатор кодека                     : 55
Идентификатор кодека/Подсказка           : MP3
Продолжительность                        : 57 м.
Вид битрейта                             : Постоянный
Битрейт                                  : 128 Кбит/сек
Каналы                                   : 2 канала
Частота                                  : 48,0 КГц
Метод сжатия                             : С потерями
Размер потока                            : 52,5 Мбайт (8%)
Выравнивание                             : Соединение по промежуткам
Продолжительность промежутка             : 42  мс. (1,00 видеокадр)
Время предзагрузки промежутка            : 504  мс.
скриншот  скриншот  скриншот  
Когда раздача ведётся путём добавления новых серий, при каждом добавлении создётся новый торрент. Чтобы начать докачку новой серии, пользователям необходимо сделать следующее:
(1) остановить скачивание,
(2) удалить старый торрент у себя из клиента (старые серии удалять не надо),
(3) скачать новый торрент и запустить его у себя в клиенте вместо старого, при этом указать клиенту путь в старую папку, куда и должно происходить скачивание новых серий.
Ваш клиент при этом должен произвести хеширование (проверку) старой папки (если не производит сам - помогите ему сделать это), и будет докачивать только те серии, которых у вас ещё нет. Старые серии при этом не удаляются, а продолжают раздаваться!
Eсли вы уже удалили старые серии, то предотвратить повторную закачку старых серий можно, отжав галочку в соответсвующих местах при запуске нового торрента. По возможности, желательно не удалять старые серии как можно дольше, чтобы релизёр не столько продолжал раздавать старые серии, а смог сконцентрироваться на новых.
pb.wtf



Скачать Хорошая борьба через торрент https://i109.fastpic.ru/big/2019/0321/b5/6a7cd14e9ff09ebc06a64142f3ceedb5.png Скачать фильм Хорошая борьба через торрент бесплантно в хорошем качестве Описание: Спин-офф сериала "Хорошая Жена", в котором ключевыми героями станут Диана Локхарт и Лукка Квин, которых мы знаем ещё со времён ... 10 10 2
Торрент: Зарегистрирован [2019-07-23 14:32] · скачан: 10 раз
Статус: √ проверено
Размер: 6.45 GB
Как cкачать? Как скачать Хорошая борьба через торрент | qTorrent

% Раздел Тема Автор DL S | L
Зарубежные сериалы [ 10.17 GB ] Хорошая борьба / Правое дело / The Good Fight / Сезон: 3 / Серии: 1-10 из 10 [2019 WEB-DL 720p] MVO [Jaskier] bober100 Скачать
1 | 0

28-11-2019 20:33  

Отключить всю рекламу на сайте

    Дорогой пользователь! Огромная просьба, поблагодарите релизера, оцените раздачу и оставьте свои комментарий, если Вы скачали Хорошая борьба через торрент бесплатно! Внесите свою лепту в развитие PiratBit!
    Комментировать посты могут только пользователи прошедшие не сложную регистрацию
    Показать сообщения:    

    Хорошая борьба через торрент
    Скачать бесплатно Хорошая борьба
    Хорошая борьба скачать торрент
    Хорошая борьба смотреть онлайн
    Cкачать фильм Хорошая борьба бесплатно
    Хорошая борьба скачать торрент в хорошем качестве
    Хорошая борьба смотреть онлайн бесплатно в хорошем качестве


    Вы не можете начинать темы
    Вы не можете отвечать на сообщения
    Вы не можете редактировать свои сообщения
    Вы не можете удалять свои сообщения
    Вы не можете голосовать в опросах
    Вы не можете прикреплять файлы к сообщениям
    Вы можете скачивать файлы