Ссылка на приватное зеркало нашего сайта всего за 1$. Внимание количество ограничено!!!

2 сезон

iTunes

1 сезон

1

2 сезон

2 сезон

iTunes

1 сезон

RePack

30

Ultimate

ВАЖНО

ИГРА 18+

pack

RePack

MK11
pack

Забери бонус

RePack

jed

!!Акция!!

Alien_Rage

RePack

fifa19

RePack

Assassins Creed: Odyssey

RePack

NEED FOR SPEED™ PAYBACK

4 сезон

9 сезон

Бесстыжие 9 сезон

Все сериалы

все сериалы на PB.wtf

RePack

FAR CRY 5
  

Клятва / The Oath / Сезон: 2 / Серии: 1-8 из 8 (Джефф Т. Томас) [2019, Драма, криминал, WEB-DL 1080p] [MVO] (TVShows) pb.wtf

Клятва через торрент pb.wtf

Размер: 14.93 GB | Добавлен: 1 год 8 мес. назад | Торрент скачан:3 раза
Скачать  

21-03-2019 18:30 Клятва Скачать торрент  

Клятва | The Oath

Год выпуска: 2019
Страна: США
Жанр: Драма, криминал
Продолжительность: ~ 00:45:00
Перевод: Профессиональный (многоголосый закадровый) | TVShows
Режиссёр: Джефф Т. Томас
В ролях:Катрина Ло, Джозеф Джулиан Сория, Элизабет Рём, Шон Бин, Райан Квантен, Кори Хардрикт, Арлен Эскарпета
Описание: Полицейский Том Хэммонд живёт двойной жизнью. Страж закона — лидер жестокой преступной группировки «Вороны», состоящей из полицейских. Но наказание неминуемо: о преступной деятельности Хэммонда узнает спецагент ФБР, работающий под прикрытием. Дело доходит до суда, и бывший коп отправляется в тюрьму, получив длительный срок. Но Хэммонд не теряет надежды выйти на свободу и вновь стать лидером банды, отомстив всем, кто его предал.

Качество: WEB-DL 1080p
Формат: MKV
Видео: 1920x1080 (16:9) | X264 | ~6082 kbps | 23.976 fps
Аудио 1: AC3, 48,0 КГц, 2 ch, 192 kbps - [RUS]
Аудио 2: AC3, 48,0 КГц, 2 ch, 127 kbps - [ENG]
Субтитры: английские
Реклама: отсутствует
Общее
Уникальный идентификатор : 323410703770296442477054734439415290932 (0xF34EA2C88CE796972C1A687DBFE81C34)
Полное имя : I:\Тифайл\Подготовка\The.Oath.S02.1080p.TVShows\The.Oath.S02E01.1080p.TVShows.mkv
Формат : Matroska
Версия формата : Version 4 / Version 2
Размер файла : 1,92 Гбайт
Продолжительность : 45 м. 12 с.
Общий поток : 6082 Кбит/сек
Дата кодирования : UTC 2019-03-19 21:49:40
Программа кодирования : mkvmerge v31.0.0 ('Dolores In A Shoestand') 64-bit
Библиотека кодирования : libebml v1.3.6 + libmatroska v1.4.9

Видео
Идентификатор : 1
Формат : AVC
Формат/Информация : Advanced Video Codec
Профиль формата : High@L4
Параметр CABAC формата : Да
Параметр ReFrames формата : 2 кадра
Идентификатор кодека : V_MPEG4/ISO/AVC
Продолжительность : 45 м. 12 с.
Битрейт : 6000 Кбит/сек
Ширина : 1920 пикселей
Высота : 1080 пикселей
Соотношение сторон : 16:9
Режим частоты кадров : Постоянный
Частота кадров : 23,976 (24000/1001) кадра/сек
Цветовое пространство : YUV
Субдискретизация насыщенности : 4:2:0
Битовая глубина : 8 бит
Тип развёртки : Прогрессивная
Бит/(Пиксели*Кадры) : 0.121
Размер потока : 1,82 Гбайт (95%)
Библиотека кодирования : x264 core 148 r2579M 73ae2d1
Настройки программы : cabac=1 / ref=2 / deblock=1:0:0 / analyse=0x3:0x113 / me=hex / subme=2 / psy=1 / psy_rd=1.00:0.00 / mixed_ref=0 / me_range=16 / chroma_me=1 / trellis=0 / 8x8dct=1 / cqm=0 / deadzone=21,11 / fast_pskip=1 / chroma_qp_offset=0 / threads=4 / lookahead_threads=1 / sliced_threads=0 / nr=250 / decimate=1 / interlaced=0 / bluray_compat=0 / stitchable=1 / constrained_intra=0 / bframes=0 / weightp=1 / keyint=250 / keyint_min=24 / scenecut=40 / intra_refresh=0 / rc_lookahead=10 / rc=2pass / mbtree=1 / bitrate=6000 / ratetol=1.0 / qcomp=0.60 / qpmin=5 / qpmax=69 / qpstep=4 / cplxblur=20.0 / qblur=0.5 / ip_ratio=1.40 / aq=1:1.00
Язык : English
Default : Да
Forced : Нет

Аудио #1
Идентификатор : 2
Формат : AC-3
Формат/Информация : Audio Coding 3
Параметр Endianness формата : Big
Идентификатор кодека : A_AC3
Продолжительность : 45 м. 12 с.
Вид битрейта : Постоянный
Битрейт : 192 Кбит/сек
Каналы : 2 канала
Расположение каналов : Front: L R
Частота : 48,0 КГц
Частота кадров : 31,250 кадров/сек (1536 spf)
Битовая глубина : 16 бит
Метод сжатия : С потерями
Размер потока : 62,1 Мбайт (3%)
Заголовок : TVShows
Язык : Russian
ServiceKind/String : Complete Main
Default : Да
Forced : Да

Аудио #2
Идентификатор : 3
Формат : AAC
Формат/Информация : Advanced Audio Codec
Профиль формата : HE-AAC / LC
Идентификатор кодека : A_AAC
Продолжительность : 45 м. 12 с.
Битрейт : 127 Кбит/сек
Каналы : 2 канала
Расположение каналов : Front: L R
Частота : 48,0 КГц / 24,0 КГц
Частота кадров : 23,438 кадра/сек (1024 spf)
Метод сжатия : С потерями
Размер потока : 41,0 Мбайт (2%)
Заголовок : Original
Язык : English
Default : Нет
Forced : Нет

Текст
Идентификатор : 4
Формат : UTF-8
Идентификатор кодека : S_TEXT/UTF8
Идентификатор кодека/Информация : UTF-8 Plain Text
Продолжительность : 42 м. 48 с.
Битрейт : 65 бит/сек
ElementCount : 724
Размер потока : 20,5 Кбайт (0%)
Заголовок : English
Язык : English
Default : Нет
Forced : Нет
скриншот  скриншот  скриншот  
pb.wtf



Скачать Клятва через торрент http://a.radikal.ru/a19/1902/64/eef71492a677.jpg Скачать фильм Клятва через торрент бесплантно в хорошем качестве Описание: Полицейский Том Хэммонд живёт двойной жизнью. Страж закона — лидер жестокой преступной группировки «Вороны», состоящей из ... 5 10 1
Торрент: Зарегистрирован [2019-03-21 18:30] · скачан: 3 раз
Статус: √ проверено
Размер: 14.93 GB
Как cкачать? Как скачать Клятва через торрент | qTorrent

% Раздел Тема Автор DL S | L
Зарубежные сериалы [ 15.56 GB ] Клятва / The Oath / Сезон: 2 / Серии: 1-8 из 8 [2019 WEB-DL 1080p] MVO [Jaskier] bober100 Скачать
1 | 0
Зарубежные сериалы [ 7.02 GB ] Клятва / The Oath / Сезон: 2 / Серии: 1-8 из 8 [2019 WEB-DL 720p] MVO [Jaskier] bober100 Скачать
1 | 0
Зарубежные сериалы [ 4.34 GB ] Клятва / The Oath / Сезон: 2 / Серии: 1-8 из 8 [2019 WEB-DLRip] MVO [Jaskier] bober100 Скачать
1 | 0
Зарубежные сериалы [ 2.98 GB ] Клятва / The Oath / Сезон: 2 / Серии 1-8 из 8 [2018 WEBRip] [MVO] killermax2013 Скачать
1 | 0
Зарубежные сериалы [ 15.28 GB ] Клятва / The Oath / Сезон: 2 / Серии 1-8 из 8 [2018 WEBRip 1080p] [MVO] killermax2013 Скачать
1 | 0

28-11-2019 20:33  

Отключить всю рекламу на сайте

    Дорогой пользователь! Огромная просьба, поблагодарите релизера, оцените раздачу и оставьте свои комментарий, если Вы скачали Клятва через торрент бесплатно! Внесите свою лепту в развитие PiratBit!
    Комментировать посты могут только пользователи прошедшие не сложную регистрацию
    Показать сообщения:    

    Клятва через торрент
    Скачать бесплатно Клятва
    Клятва скачать торрент
    Клятва смотреть онлайн
    Cкачать фильм Клятва бесплатно
    Клятва скачать торрент в хорошем качестве
    Клятва смотреть онлайн бесплатно в хорошем качестве


    Вы не можете начинать темы
    Вы не можете отвечать на сообщения
    Вы не можете редактировать свои сообщения
    Вы не можете удалять свои сообщения
    Вы не можете голосовать в опросах
    Вы не можете прикреплять файлы к сообщениям
    Вы можете скачивать файлы