новый адрес пиратбит piratbit
Мега распродажа FORZA HORIZON 4 ULTIMATE+ВСЕ DLC+ОНЛАЙН всего за 499р. 349 руб. (супер цена). Внимание количество ограничено!!!

iTunes

1+1

iTunes

мы

iTunes

1

iTunes

Чернобыль

iTunes

Ральф против интернета

Лицензия

ПШазам

Лицензия

Игра престолов

Лицензия

30
pack

ВАЖНО

!!Акция!!

Alien_RageХит недели

RePack

Resident Evil 21

ИГРА 18+

pack

RePack

Metro:Exodus

!!Акция!!

Alien_Rage

RePack

fifa19

RePack

Assassins Creed: Odyssey

RePack

NEED FOR SPEED™ PAYBACK

3 сезон

9 сезон

Бесстыжие 9 сезон

Все сериалы

все сериалы на PB.wtf

RePack

FAR CRY 5
Ребята, катастрофически не хватает 1900р. для оплаты серверов за Октябрь (всвязи с блокировками трафик упал в 3 раза), 1-2р., выручайте.
  

Тобол (Игорь Зайцев) [2019 г., история, драма, WEB-DLRip, Не требуется Русский] pb.wtf

Тобол через торрент pb.wtf

Раздают: 2 [ 0 KB/s ]
Размер: 711 MB | Добавлен: 7 мес. назад | Торрент скачан:266 раз
Скачать  

21-03-2019 18:46 Тобол Скачать торрент  

Тобол
Год выпуска: 2019
Страна: Россия / Solivs, Surgutinform TV Company, Yellow, Black & White
Жанр: история, драма
Продолжительность: 01:48:01
Перевод: Не требуется Русский

Режиссер: Игорь Зайцев

rating

В ролях: Илья Маланин, Дмитрий Назаров, Дмитрий Дюжев, Евгений Дятлов, Агата Муцениеце, Александр Лазарев мл., Андрей Бурковский, Юлия Макарова, Павел Табаков, Еркебулан Даиров

Описание: Молодой офицер новой гвардии Петра I Иван Демарин по заданию царя отправляется в глубину Сибири - в пограничный Тобольск. Здесь Иван встречает свою первую любовь и вместе со своим полком оказывается втянутым в заговор местных князей, охотящихся за золотом Яркенда. Его крепость окружена полчищами диких джунгар и помощи ждать неоткуда...

Качество: WEB-DLRip
Формат: AVI
Видео кодек: XviD
Аудио кодек: MP3
Видео: 640x272 (2.35:1), 24.000 fps, XviD build 50 ~782 kbps avg, 0.19 bit/pixel
Аудио: 48 kHz, MPEG Layer 3, 2 ch, ~128.00 kbps avg
скриншот   скриншот   скриншот   скриншот   скриншот   скриншот   скриншот   скриншот  

Общее
Полное имя : F:\ФИЛЬМЫ\Тобол.2019.WEB-DLRip.avi
Формат : AVI
Формат/Информация : Audio Video Interleave
Размер файла : 711 Мбайт
Продолжительность : 1 ч. 48 м.
Общий поток : 920 Кбит/сек
Программа кодирования : VirtualDubMod 1.5.10.3 | www.virtualdub-fr.org || (build 2550/release)
Библиотека кодирования : VirtualDubMod build 2550/release

Видео
Идентификатор : 0
Формат : MPEG-4 Visual
Профиль формата : Advanced Simple@L5
Настройки формата : BVOP1
Параметр BVOP формата : 1
Параметр QPel формата : Нет
Параметр GMC формата : Без точки перехода
Параметр матрицы формата : Default (MPEG)
Идентификатор кодека : XVID
Идентификатор кодека/Подсказка : XviD
Продолжительность : 1 ч. 48 м.
Битрейт : 782 Кбит/сек
Ширина : 640 пикселей
Высота : 272 пикселя
Соотношение сторон : 2,35:1
Частота кадров : 24,000 кадра/сек
Цветовое пространство : YUV
Субдискретизация насыщенности : 4:2:0
Битовая глубина : 8 бит
Тип развёртки : Прогрессивная
Метод сжатия : С потерями
Бит/(Пиксели*Кадры) : 0.187
Размер потока : 605 Мбайт (85%)
Библиотека кодирования : XviD 1.2.1 (UTC 2008-12-04)

Аудио
Идентификатор : 1
Формат : MPEG Audio
Версия формата : Version 1
Профиль формата : Layer 3
Настройки формата : Joint stereo / MS Stereo
Идентификатор кодека : 55
Идентификатор кодека/Подсказка : MP3
Продолжительность : 1 ч. 48 м.
Вид битрейта : Постоянный
Битрейт : 128 Кбит/сек
Каналы : 2 канала
Частота : 48,0 КГц
Частота кадров : 41,667 кадра/сек (1152 SPF)
Метод сжатия : С потерями
Размер потока : 98,9 Мбайт (14%)
Выравнивание : Соединение по промежуткам
Продолжительность промежутка : 42 мс. (1,00 видеокадр)
Время предзагрузки промежутка : 504 мс.
Библиотека кодирования : LAME3.99r
Настройки программы : -m j -V 4 -q 2 -lowpass 17 -b 128

pb.wtf



Скачать Тобол через торрент http://pic1.kartinco.top/images/12/ct3a7.jpg Скачать фильм Тобол через торрент бесплантно в хорошем качестве Описание: Молодой офицер новой гвардии Петра I Иван Демарин по заданию царя отправляется в глубину Сибири - в пограничный Тобольск. Здесь ... 10 10 11
Торрент: Зарегистрирован [2019-03-21 18:46] · скачан: 266 раз
Статус: √ проверено
Размер: 711 MB
Как cкачать? Как скачать Тобол через торрент | qTorrent

% Раздел Тема Автор DL S | L
Наши фильмы (HD, WEB-DL 720p, 1080p) [ 4.75 GB ] Тобол [2019 История BDRip 720p] [] - ExKinoRay Enigma2010 Скачать
44 | 4
Наши новые фильмы 2018-2019 [ 1.73 GB ] Тобол [2019 История BDRip-AVC] [] bober100 Скачать
5 | 0
Наши фильмы (HD, WEB-DL 720p, 1080p) [ 9.01 GB ] Тобол [2019 История BDRip 1080p] [] bober100 Скачать
2 | 1
Наши фильмы (Blu-ray, BD-Remux, HDDVD) [ 35.79 GB ] Тобол [2019 История Blu-ray 1080p] [GER Transfer / ] bober100 Скачать
1 | 0
Наши новые фильмы 2018-2019 [ 1.46 GB ] Тобол [2019 история BDRip] [Русский] [] Twi7ter Скачать
54 | 1
Наши новые фильмы 2018-2019 [ 1.46 GB ] Тобол [2019 История WEB-DLRip] bober100 Скачать
6 | 0


>> Регистрируемся здесь <<






Отзывы и комментарии о схеме читаем и пишем здесь: ---> Отзывы и комментарии о схеме

Новые благодарочки в телеграм довольных пользователей:
скриншот   скриншот   скриншот   скриншот   скриншот

22-03-2019 07:37 Тобол Скачать торрент  

Как ни странно довольно не плохой фильм. Назаров разочаровал немного, все таки он более комический персонаж. Спасибо за раздачу.pb.wtf



22-03-2019 08:01 Тобол Скачать торрент  

двоякое чувство ни то комедия ни то драма или трейлер посмотрелpb.wtf



    Дорогой пользователь! Огромная просьба, поблагодарите релизера, оцените раздачу и оставьте свои комментарий, если Вы скачали Тобол через торрент бесплатно! Внесите свою лепту в развитие PiratBit!
    Комментировать посты могут только пользователи прошедшие не сложную регистрацию
    Показать сообщения:    

    Тобол через торрент
    Скачать бесплатно Тобол
    Тобол скачать торрент
    Тобол смотреть онлайн
    Cкачать фильм Тобол бесплатно
    Тобол скачать торрент в хорошем качестве
    Тобол смотреть онлайн бесплатно в хорошем качестве


    Вы не можете начинать темы
    Вы не можете отвечать на сообщения
    Вы не можете редактировать свои сообщения
    Вы не можете удалять свои сообщения
    Вы не можете голосовать в опросах
    Вы не можете прикреплять файлы к сообщениям
    Вы можете скачивать файлы