MEGA NEWS Получи личный уникальный адрес сайта и защити себя от блокировок. Внимание количество ограничено!!!

iTunes

1+1

iTunes

мы

iTunes

1

iTunes

Чернобыль

iTunes

Ральф против интернета

Лицензия

ПШазам

Лицензия

Игра престолов

Лицензия

30
pack

ВАЖНО

!!Акция!!

Alien_RageХит недели

RePack

Resident Evil 21

ИГРА 18+

pack

RePack

Metro:Exodus

!!Акция!!

Alien_Rage

RePack

fifa19

RePack

Assassins Creed: Odyssey

RePack

NEED FOR SPEED™ PAYBACK

3 сезон

9 сезон

Бесстыжие 9 сезон

Все сериалы

все сериалы на PB.wtf

RePack

FAR CRY 5
Ребята, катастрофически не хватает 1900р. для оплаты серверов за АВГУСТ (всвязи с блокировками трафик упал в 3 раза), 1-2р., выручайте.
  

Тройная угроза / Triple Threat (Джесси Джонсон) [2019, Боевик, триллер, криминал, WEB-DL 1080p] DUB [iTunes] pb.wtf

Тройная угроза через торрент pb.wtf

Раздают: 2 [ 0 KB/s ]
Размер: 3.28 GB | Добавлен: 6 мес. назад | Торрент скачан:293 раза
Скачать  

22-03-2019 00:34 Тройная угроза Скачать торрент  

Тройная угроза / Triple Threat Год выпуска: 2019
Страна: Таиланд, Китай, США
Жанр: Боевик, триллер, криминал
Продолжительность: 01:35:51
Перевод: Дублированный | iTunes
Субтитры: отсутствуют

Режиссер: Джесси Джонсон

rating

В ролях:

Тони Джа, Ико Уайс, Тайгер Чэнь, Скотт Эдкинс, Селина Джейд, Майкл Джей Уайт, Доминик Ванденберг, Яанин Висмитананда, Майкл Вон, Дэниэл Уайт

Описание:

Международная преступная группировка посылает команду профессиональных киллеров убить дочь миллиардера, которая задумала положить конец их криминальной деятельности. Спасать девушку будут трое наёмников, в прошлом — успешных бойцов.

Качество: WEB-DL 1080p
Формат: MKV

Видео: MPEG-4 AVC, 4416 Кбит/с, 1916x802
Аудио: Русский (AC3, 6 ch, 384 Кбит/с)
скриншот  скриншот  скриншот  

Общее
Уникальный идентификатор : 247939473963294976299015038493808599555 (0xBA8767DDEE69CB79BC9E0D9553372203)
Полное имя : C:\Triple.Threat.WEB-DL.1080p.ELEKTRI4KA.UNIONGANG.mkv
Формат : Matroska
Версия формата : Version 2
Размер файла : 3,28 Гбайт
Продолжительность : 1 ч. 35 м.
Общий поток : 4898 Кбит/сек
Название фильма : Triple.Threat.WEB-DL.1080p.ELEKTRI4KA.UNIONGANG
Дата кодирования : UTC 2019-03-21 19:27:12
Программа кодирования : mkvmerge v7.8.0 ('River Man') 32bit built on Apr 3 2015 12:11:22
Библиотека кодирования : libebml v1.3.1 + libmatroska v1.4.2

Видео
Идентификатор : 2
Формат : AVC
Формат/Информация : Advanced Video Codec
Профиль формата : High@L4
Параметр CABAC формата : Да
Параметр RefFrames формата : 5 кадров
Идентификатор кодека : V_MPEG4/ISO/AVC
Продолжительность : 1 ч. 35 м.
Битрейт : 4416 Кбит/сек
Ширина : 1916 пикселей
Высота : 802 пикселя
Соотношение сторон : 2,40:1
Режим частоты кадров : Постоянный
Частота кадров : 23,976 (24000/1001) кадра/сек
Цветовое пространство : YUV
Субдискретизация насыщенности : 4:2:0
Битовая глубина : 8 бит
Тип развёртки : Прогрессивная
Бит/(Пиксели*Кадры) : 0.120
Размер потока : 2,96 Гбайт (90%)
Заголовок : Triple.Threat.WEB-DL.1080p.ELEKTRI4KA.UNIONGANG
Язык : English
Default : Да
Forced : Нет
Цветовой диапазон : Limited
Основные цвета : BT.709
Характеристики трансфера : BT.709
Коэффициенты матрицы : BT.709

Аудио
Идентификатор : 1
Формат : AC-3
Формат/Информация : Audio Coding 3
Расширение режима : CM (complete main)
Параметр Endianness формата : Big
Идентификатор кодека : A_AC3
Продолжительность : 1 ч. 35 м.
Вид битрейта : Постоянный
Битрейт : 384 Кбит/сек
Каналы : 6 каналов
Расположение каналов : Front: L C R, Side: L R, LFE
Частота : 48,0 КГц
Частота кадров : 31,250 кадров/сек (1536 spf)
Метод сжатия : С потерями
Размер потока : 263 Мбайт (8%)
Заголовок : itunes.ELEKTRI4KA.UNIONGANG
Язык : Russian
Default : Да
Forced : Нет

Меню
00:00:00.000 : en:Глава 1
00:13:42.989 : en:Глава 2
00:21:05.806 : en:Глава 3
00:28:40.009 : en:Глава 4
00:35:23.578 : en:Глава 5
00:46:56.020 : en:Глава 6
00:54:11.163 : en:Глава 7
01:00:25.369 : en:Глава 8
01:08:35.191 : en:Глава 9
01:13:33.781 : en:Глава 10
01:29:59.933 : en:Глава 11

pb.wtf



Скачать Тройная угроза через торрент https://d.radikal.ru/d31/1903/7c/48dda63eef6c.png Скачать фильм Тройная угроза через торрент бесплантно в хорошем качестве Описание: Международная преступная группировка посылает команду профессиональных киллеров убить дочь миллиардера, которая задумала положить ... 9.5 10 19
Торрент: Зарегистрирован [2019-03-22 00:34] · скачан: 293 раз
Статус: √ проверено
Размер: 3.28 GB
Как cкачать? Как скачать Тройная угроза через торрент | qTorrent

% Раздел Тема Автор DL S | L
Азиатские фильмы [ 1.8 GB ] Тройная угроза / Triple Threat [2019 BDRip-AVC] bober100 Скачать
2 | 0
Фильмы (Blu-ray, BD-Remux, HDDVD) [ 22.18 GB ] Тройная угроза / Triple Threat [2019 BD Remux 1080p] bober100 Скачать
1 | 0
Азиатские фильмы [ 7.38 GB ] Тройная угроза / Triple Threat [2019 BDRip 1080p] bober100 Скачать
3 | 0
Азиатские фильмы [ 3.7 GB ] Тройная угроза / Triple Threat [2019 BDRip 720p] bober100 Скачать
2 | 0
Азиатские фильмы [ 1.42 GB ] Тройная угроза / Triple Threat [2019 BDRip] - Twi7ter Скачать
8 | 0
Азиатские фильмы [ 747 MB ] Тройная угроза / Triple Threat [2019 WEB-DLRip от OlLanDGroup] Skandar2016 Скачать
3 | 0
Азиатские фильмы [ 2.95 GB ] Тройная угроза / Triple Threat [2019 WEB-DL 720p] bober100 Скачать
1 | 0


>> Регистрируемся здесь <<






Отзывы и комментарии о схеме читаем и пишем здесь: ---> Отзывы и комментарии о схеме

Новые благодарочки в телеграм довольных пользователей:
скриншот   скриншот   скриншот   скриншот   скриншот

28-03-2019 14:04 Тройная угроза Скачать торрент  

Ого-го! Онг-Бак, Рама и Мастер Тай-Чи против Бойко и Неоспоримого. Будет рубка!pb.wtf



    Дорогой пользователь! Огромная просьба, поблагодарите релизера, оцените раздачу и оставьте свои комментарий, если Вы скачали Тройная угроза через торрент бесплатно! Внесите свою лепту в развитие PiratBit!
    Комментировать посты могут только пользователи прошедшие не сложную регистрацию
    Показать сообщения:    

    Тройная угроза через торрент
    Скачать бесплатно Тройная угроза
    Тройная угроза скачать торрент
    Тройная угроза смотреть онлайн
    Cкачать фильм Тройная угроза бесплатно
    Тройная угроза скачать торрент в хорошем качестве
    Тройная угроза смотреть онлайн бесплатно в хорошем качестве


    Вы не можете начинать темы
    Вы не можете отвечать на сообщения
    Вы не можете редактировать свои сообщения
    Вы не можете удалять свои сообщения
    Вы не можете голосовать в опросах
    Вы не можете прикреплять файлы к сообщениям
    Вы можете скачивать файлы