Ссылка на приватное зеркало всего за 1$. Внимание количество ограничено!!!

OK

1+1

iTunes

мы

OK

1

WEB-DLRip

Джокер

Пифагор

Ведьмак / The Witcher сериал

Лицензия

ПШазам

ОК

Оно 2

iTunes

30
pack

Вам бонус

ВАЖНО

!!Акция!!

Alien_RageХит недели

RePack

Resident Evil 21

ИГРА 18+

pack

RePack

jed

!!Акция!!

Alien_Rage

RePack

fifa19

RePack

Assassins Creed: Odyssey

RePack

NEED FOR SPEED™ PAYBACK

4 сезон

9 сезон

Бесстыжие 9 сезон

Все сериалы

все сериалы на PB.wtf

RePack

FAR CRY 5
  

Аксиома / The Axiom (Николас Вудс) [2018, ужасы, BDRip 1080p] MVO [HDRezka Studio] - ExKinoRay pb.wtf

Аксиома через торрент pb.wtf

Раздают: 2 [ 0 KB/s ]
Размер: 7.81 GB | Добавлен: 4 мес. 6 д. назад | Торрент скачан:76 раз
Скачать  

22-03-2019 04:15 Аксиома Скачать торрент  

Название: Аксиома
Оригинальное название: The Axiom
Год выпуска: 2018
Жанр: Ужасы
Режиссер: Николас Вудс
В ролях: Хэтти Смит, Зак Титус, Николь Дамбро, Майкл Харрисон, Тейлор Флауэрс, Уильям Кирчер, Аарон Берджон, Дежан Браун, Брэндон Буртис, Чейз Каргилл

Описание:
Маккензи Коди вместе с друзьями отправляется в национальный парк Синдер, чтобы разыскать без вести пропавшую сестру Мэрилин. Не желая самостоятельно заходить в лес, где часто пропадают люди, друзья принимают помощь со стороны местного жителя Леона. Продвигаясь вглубь парка вместе с проводником, Маккензи и компания начинают испытывать галлюцинации, а также слышать «голоса». Спустя некоторое время ситуация выходит из-под контроля, когда главные герои находят невидимый портал, который переносит их в параллельное измерение, где находится мир загадочных монстров...


rating

Выпущено: США, Axiom Movie Production Company
Продолжительность: 01:38:43
Перевод: Профессиональный (многоголосый, закадровый) | HDRezka Studio
Субтитры: Английские

БЕЗ КАКОЙ-ЛИБО РЕКЛАМЫ!

Формат: MKV
Качество: BDRip 1080p
Видео: MPEG-4 AVC, 1920x800 (2.40:1), 23.976 fps, 9622 Kbps, 0.261 bit/pixel
Аудио 1: 48 kHz, AC3, 2.0, 192 Kbps | MVO | RUS |
Аудио 2: 48 kHz, DTS, 5.1, 1509 Kbps | Оригинал | ENG |
General
Unique ID : 214104615487098139841472225028625940620 (0xA1130C8C8FF84B8BAFC124CEDFB0408C)
Complete name : F:\The.Axiom.2018.MVO.BDRip.1080p.ExKinoRay..mkv
Format : Matroska
Format version : Version 2
File size : 7.81 GiB
Duration : 1 h 39 min
Overall bit rate : 11.3 Mb/s
Movie name : The Axiom 2018 from ExKinoRay
Encoded date : UTC 2019-09-11 20:58:20
Writing application : mkvmerge v5.6.0 ('Kenya Kane') built on May 27 2012 16:44:04
Writing library : libebml v1.2.3 + libmatroska v1.3.0

Video
ID : 1
Format : AVC
Format/Info : Advanced Video Codec
Format profile : High@L4.1
Format settings, CABAC : Yes
Format settings, ReFrames : 5 frames
Codec ID : V_MPEG4/ISO/AVC
Duration : 1 h 39 min
Bit rate : 9 622 kb/s
Width : 1 920 pixels
Height : 800 pixels
Display aspect ratio : 2.40:1
Frame rate mode : Constant
Frame rate : 23.976 (23976/1000) FPS
Color space : YUV
Chroma subsampling : 4:2:0
Bit depth : 8 bits
Scan type : Progressive
Bits/(Pixel*Frame) : 0.261
Stream size : 6.48 GiB (83%)
Title : Enigma
Writing library : x264 core 152 r2851 ba24899
Encoding settings : cabac=1 / ref=5 / deblock=1:-2:-2 / analyse=0x3:0x113 / me=umh / subme=11 / psy=1 / psy_rd=1.05:0.10 / mixed_ref=1 / me_range=32 / chroma_me=1 / trellis=2 / 8x8dct=1 / cqm=0 / deadzone=21,11 / fast_pskip=0 / chroma_qp_offset=-3 / threads=12 / lookahead_threads=3 / sliced_threads=0 / nr=0 / decimate=0 / interlaced=0 / bluray_compat=0 / constrained_intra=0 / bframes=10 / b_pyramid=2 / b_adapt=2 / b_bias=0 / direct=3 / weightb=1 / open_gop=0 / weightp=2 / keyint=240 / keyint_min=23 / scenecut=40 / intra_refresh=0 / rc=2pass / mbtree=0 / bitrate=9622 / ratetol=1.0 / qcomp=0.60 / qpmin=0 / qpmax=51 / qpstep=4 / cplxblur=20.0 / qblur=0.5 / ip_ratio=1.40 / pb_ratio=1.30 / aq=3:0.80
Language : English
Default : Yes
Forced : No
Color range : Limited
Color primaries : BT.709
Transfer characteristics : BT.709
Matrix coefficients : BT.709

Audio #1
ID : 2
Format : AC-3
Format/Info : Audio Coding 3
Mode extension : CM (complete main)
Format settings, Endianness : Big
Codec ID : A_AC3
Duration : 1 h 39 min
Bit rate mode : Constant
Bit rate : 192 kb/s
Channel(s) : 2 channels
Channel positions : Front: L R
Sampling rate : 48.0 kHz
Frame rate : 31.250 FPS (1536 spf)
Compression mode : Lossy
Stream size : 136 MiB (2%)
Title : MVO
Language : Russian
Default : Yes
Forced : No

Audio #2
ID : 3
Format : DTS
Format/Info : Digital Theater Systems
Mode : 16
Format settings, Endianness : Big
Codec ID : A_DTS
Duration : 1 h 39 min
Bit rate mode : Constant
Bit rate : 1 509 kb/s
Channel(s) : 6 channels
Channel positions : Front: L C R, Side: L R, LFE
Sampling rate : 48.0 kHz
Frame rate : 93.750 FPS (512 spf)
Bit depth : 24 bits
Compression mode : Lossy
Stream size : 1.04 GiB (13%)
Title : Original
Language : English
Default : No
Forced : No

Text
ID : 4
Format : UTF-8
Codec ID : S_TEXT/UTF8
Codec ID/Info : UTF-8 Plain Text
Language : English
Default : No
Forced : No

Menu
00:00:00.000 : :Глава 01
00:09:08.923 : :Глава 02
00:22:19.004 : :Глава 03
00:35:04.936 : :Глава 04
00:48:10.929 : :Глава 05
00:58:23.917 : :Глава 06
01:10:24.970 : :Глава 07
01:22:59.891 : :Глава 08
01:35:52.955 : :Глава 09


Релиз от:

Автор релиза: pb.wtf



Скачать Аксиома через торрент https://d.radikal.ru/d26/1903/3b/042c04d34cd1.jpg Скачать фильм Аксиома через торрент бесплантно в хорошем качестве Описание: Маккензи Коди вместе с друзьями отправляется в национальный парк Синдер, чтобы разыскать без вести пропавшую сестру Мэрилин. Не ... 10 10 9
Info! Золотая раздача, скачанное не засчитывается.
Торрент: Зарегистрирован [2019-09-12 00:11] · скачан: 76 раз
Статус: T временная
Размер: 7.81 GB
Как cкачать? Как скачать Аксиома через торрент | qTorrent

% Раздел Тема Автор DL S | L
T Фильмы 2018 [DVDrip, WEB-DLRip, HDrip] (DUB, MVO) [ 1.37 GB ] Аксиома / The Axiom [2018 BDRip] MVO [HDRezka Studio] - ExKinoRay Enigma2010 Скачать
9 | 0


Последний раз редактировалось: Enigma2010 (2019-09-12 00:11), всего редактировалось 1 раз

28-11-2019 20:33  

Отключить всю рекламу на сайте

    Дорогой пользователь! Огромная просьба, поблагодарите релизера, оцените раздачу и оставьте свои комментарий, если Вы скачали Аксиома через торрент бесплатно! Внесите свою лепту в развитие PiratBit!
    Комментировать посты могут только пользователи прошедшие не сложную регистрацию
    Показать сообщения:    

    Аксиома через торрент
    Скачать бесплатно Аксиома
    Аксиома скачать торрент
    Аксиома смотреть онлайн
    Cкачать фильм Аксиома бесплатно
    Аксиома скачать торрент в хорошем качестве
    Аксиома смотреть онлайн бесплатно в хорошем качестве


    Вы не можете начинать темы
    Вы не можете отвечать на сообщения
    Вы не можете редактировать свои сообщения
    Вы не можете удалять свои сообщения
    Вы не можете голосовать в опросах
    Вы не можете прикреплять файлы к сообщениям
    Вы можете скачивать файлы