новый адрес
Ссылка на приватное зеркало всего за 1$. Внимание количество ограничено!!!

iTunes

1+1

iTunes

мы

WEB-DL

1

iTunes

Чернобыль

iTunes

Ральф против интернета

Лицензия

ПШазам

Лицензия

Оно 2

Лицензия

30
pack

Вам бонус

ВАЖНО

!!Акция!!

Alien_RageХит недели

RePack

Resident Evil 21

ИГРА 18+

pack

RePack

jed

!!Акция!!

Alien_Rage

RePack

fifa19

RePack

Assassins Creed: Odyssey

RePack

NEED FOR SPEED™ PAYBACK

3 сезон

9 сезон

Бесстыжие 9 сезон

Все сериалы

все сериалы на PB.wtf

RePack

FAR CRY 5
Ребята, катастрофически не хватает 1900р. для оплаты серверов за Октябрь (всвязи с блокировками трафик упал в 3 раза), 1-2р., выручайте.
  

Живые и Мёртвые (Александр Столпер) [1963, СССР, драма, военный, DVDRip от AVP Studio] pb.wtf

Живые и Мёртвые через торрент pb.wtf

Размер: 2.18 GB | Добавлен: 8 мес. назад | Торрент скачан:3 раза
Скачать  

22-03-2019 10:07 Живые и Мёртвые Скачать торрент  

Живые и Мёртвые
Страна: СССР
Производство: Мосфильм
Жанр: драма, военный
Год выпуска: 1963
Продолжительность: 1:33:37+01:34:52

Перевод: не требуется
Оригинальная аудиодорожка: русский
Cубтитры: нет

Режиссер: Александр Столпер

В ролях: Кирилл Лавров, Анатолий Папанов, Олег Ефремов, Людмила Крылова, Олег Табаков, Виктор Авдюшко, Борис Чирков, Евгений Самойлов, Евгений Шутов, Михаил Глузский, Михаил Ульянов, Любовь Соколова...
Об актёрах подробней

Описание:
Журналиста Ивана Синцова известие о вероломном нападении нацистской Германии застает во время южного отпуска. Как фронтовой корреспондент он становится свидетелем тяжелых событий первых месяцев войны — многочисленных отступлений 1941 года…

Исходник: DVD9 R5
Тип релиза: DVDRip
Контейнер: AVI

Видео: 704x384 (16:9), 25 fps, XviD ~ 1454 kbps avg, 0.215 bit/pixel
Аудио: 48 kHz, Dolby AC3 2.0, 192 kbps

Раздача от:
Общее
Полное имя : Zhivye.i.mertvye.1963.DVDRip_[Youtracker]_by_AVP Studio\01.avi
Формат : AVI
Формат/Информация : Audio Video Interleave
Размер файла : 1,09 Гбайт
Продолжительность : 1 ч. 33 м.
Общий поток : 1655 Кбит/сек
Программа кодирования : VirtualDubMod 1.5.10.3 | www.virtualdub-fr.org || (build 2550/release)
Библиотека кодирования : VirtualDubMod build 2550/release

Видео
Идентификатор : 0
Формат : MPEG-4 Visual
Профиль формата : Advanced Simple@L5
Параметр BVOP формата : 1
Параметр QPel формата : Нет
Параметр GMC формата : Без точки перехода
Параметр матрицы формата : Выборочная
Идентификатор кодека : XVID
Идентификатор кодека/Подсказка : XviD
Продолжительность : 1 ч. 33 м.
Битрейт : 1454 Кбит/сек
Ширина : 704 пикселя
Высота : 384 пикселя
Соотношение сторон : 16:9
Частота кадров : 25,000 кадров/сек
Цветовое пространство : YUV
Субдискретизация насыщенности : 4:2:0
Битовая глубина : 8 бит
Тип развёртки : Прогрессивная
Метод сжатия : С потерями
Бит/(Пиксели*Кадры) : 0.215
Размер потока : 976 Мбайт (88%)
Библиотека кодирования : XviD 65

Аудио
Идентификатор : 1
Формат : AC-3
Формат/Информация : Audio Coding 3
Расширение режима : CM (complete main)
Идентификатор кодека : 2000
Продолжительность : 1 ч. 33 м.
Вид битрейта : Постоянный
Битрейт : 192 Кбит/сек
Каналы : 2 канала
Расположение каналов : Front: L R
Частота : 48,0 КГц
Битовая глубина : 16 бит
Метод сжатия : С потерями
Размер потока : 129 Мбайт (12%)
Выравнивание : Разделение по промежуткам
Продолжительность промежутка : 40 мс. (1,00 видеокадр)
Время предзагрузки промежутка : 500 мс
pb.wtf



Скачать Живые и Мёртвые через торрент http://i52.fastpic.ru/big/2013/0407/32/8b472ce392a11a9b28fbdbc444321e32.png Скачать фильм Живые и Мёртвые через торрент бесплантно в хорошем качестве Описание:Журналиста Ивана Синцова известие о вероломном нападении нацистской Германии застает во время южного отпуска. Как фронтовой ... 10 10 1
Info! Золотая раздача, скачанное не засчитывается.
Торрент: Зарегистрирован [2019-03-22 10:07] · скачан: 3 раз
Статус: √ проверено
Размер: 2.18 GB
Как cкачать? Как скачать Живые и Мёртвые через торрент | qTorrent

% Раздел Тема Автор DL S | L
Кино СССР [ 2.18 GB ] Живые и Мёртвые [1963 СССР военный DVDRip-AVC от AVP Studio] AVP Studio Скачать
1 | 0
Кино СССР [ 1.45 GB ] Живые и Мёртвые [1963 СССР военный DVDRip от AVP Studio] AVP Studio Скачать
1 | 0
Научно-популярные фильмы [ 1.46 GB ] Вода живая и мёртвая [2017 ДокументальныйHDTVRip не требуется русский] Armstrong Скачать
1 | 0
Зарубежные сериалы [ 5.29 GB ] Живые и мертвые / The Living And The Dead / Сезон: 1 / Серии 1-6 из 6 [2016 WEB-DLRip-AVC] MVO [BaibaKo] GEKADOL Скачать
1 | 0
Фильмы 2006-2008 [ 1.36 GB ] Живые и мертвые / Living and the Dead The [2006 DVDRip] Pasha74 Скачать
1 | 0

28-11-2019 20:33  

Отключить всю рекламу на сайте

    Дорогой пользователь! Огромная просьба, поблагодарите релизера, оцените раздачу и оставьте свои комментарий, если Вы скачали Живые и Мёртвые через торрент бесплатно! Внесите свою лепту в развитие PiratBit!
    Комментировать посты могут только пользователи прошедшие не сложную регистрацию
    Показать сообщения:    

    Живые и Мёртвые через торрент
    Скачать бесплатно Живые и Мёртвые
    Живые и Мёртвые скачать торрент
    Живые и Мёртвые смотреть онлайн
    Cкачать фильм Живые и Мёртвые бесплатно
    Живые и Мёртвые скачать торрент в хорошем качестве
    Живые и Мёртвые смотреть онлайн бесплатно в хорошем качестве


    Вы не можете начинать темы
    Вы не можете отвечать на сообщения
    Вы не можете редактировать свои сообщения
    Вы не можете удалять свои сообщения
    Вы не можете голосовать в опросах
    Вы не можете прикреплять файлы к сообщениям
    Вы можете скачивать файлы