Ссылка на приватное зеркало нашего сайта всего за 1$. Внимание количество ограничено!!!

2 сезон

iTunes

1 сезон

1

2 сезон

2 сезон

iTunes

1 сезон

RePack

30

Новинка

ВАЖНО

ИГРА 18+

pack

RePack

MK11
pack

Забери бонус

RePack

jed

!!Акция!!

Alien_Rage

RePack

fifa19

RePack

Assassins Creed: Odyssey

RePack

NEED FOR SPEED™ PAYBACK

4 сезон

9 сезон

Бесстыжие 9 сезон

Все сериалы

все сериалы на PB.wtf

RePack

FAR CRY 5
  

Грязь / The Dirt (Джефф Треймейн) [2019, биография, музыка, WEB-DL 1080p] DUB [Пифагор] pb.wtf

Грязь через торрент pb.wtf

Раздают: 1 [ 0 KB/s ]
Размер: 4.63 GB | Добавлен: 1 год 8 мес. назад | Торрент скачан:465 раз
Скачать  

22-03-2019 10:12 Грязь Скачать торрент  

Грязь / The Dirt Год выпуска: 2019
Страна: США
Жанр: биография, музыка
Продолжительность: 01:48:00
Перевод: Дублированный | Пифагор
Субтитры: Русские (Forced, Full), английские (SDH) и другие

Режиссер: Джефф Треймейн

rating

В ролях:

Машин Ган Келли (Tommy Lee), Иван Реон (Mick Mars), Ливэн Рамбин (Sharise), Дуглас Бут (Nikki Sixx), Даниэль Уэббер (Vince Neil), Пит Дэвидсон (Tom Zutaut), Дэвид Костабайл (Doc McGhee), Тони Кавалеро (Ozzy Osbourne), Кэбби Бордерс (Actress), Ребека Граф (Heather Locklear), Кристиан Геринг (David Lee Roth), Alexanne Wagner (Tom Zutaut's Girlfriend)

Описание:

Фильм снят на основе автобиографической книги «Грязь» группы Mötley Crüe.

Качество: WEB-DL 1080p
Формат: MKV

Видео: 1920x1080 at 23.976 fps, MPEG-4 AVC, ~5300 kbps avg
Аудио#1: Russian: 48 kHz, AC3, 3/2 (L,C,R,l,r) + LFE ch, ~384 kbps avg |Дубляж, Пифагор|
Аудио#2: English: 48 kHz, E-AC3 + Atmos, 3/2 (L,C,R,l,r) + LFE ch, ~448 kbps avg
скриншот  скриншот  скриншот  скриншот  

Полное имя : D:\RELEASE\The.Dirt.2019.1080p.WEB-DL.DUB.EniaHD.mkv
Формат : Matroska
Версия формата : Version 4
Размер файла : 4,63 Гбайт
Продолжительность : 1 ч. 48 м.
Режим общего битрейта : Переменный
Общий поток : 6137 Кбит/сек
Название фильма : Грязь (2019)
Дата кодирования : UTC 2019-03-22 09:22:58
Программа кодирования : mkvmerge v32.0.0 ('Astral Progressions') 32-bit
Библиотека кодирования : libebml v1.3.7 + libmatroska v1.5.0
Обложка : Yes
Attachments : cover.jpg

Видео
Идентификатор : 1
Формат : AVC
Формат/Информация : Advanced Video Codec
Профиль формата : High@L4
Настройки формата : CABAC / 4 Ref Frames
Параметр CABAC формата : Да
Параметр RefFrames формата : 4 кадра
Идентификатор кодека : V_MPEG4/ISO/AVC
Продолжительность : 1 ч. 48 м.
Вид битрейта : Переменный
Битрейт : 5299 Кбит/сек
Максимальный битрейт : 20,0 Мбит/сек
Ширина : 1920 пикселей
Высота : 1080 пикселей
Соотношение сторон : 16:9
Режим частоты кадров : Постоянный
Частота кадров : 23,976 (24000/1001) кадра/сек
Цветовое пространство : YUV
Субдискретизация насыщенности : 4:2:0
Битовая глубина : 8 бит
Тип развёртки : Прогрессивная
Бит/(Пиксели*Кадры) : 0.107
Размер потока : 4,00 Гбайт (86%)
Заголовок : The.Dirt.2019.1080p.WEB-DL.DUB.EniaHD
Библиотека кодирования : x264 core 148 r2715 7e75228
Настройки программы : cabac=1 / ref=4 / deblock=1:0:0 / analyse=0x3:0x111 / me=umh / subme=10 / psy=1 / psy_rd=1.00:0.00 / mixed_ref=1 / me_range=120 / chroma_me=1 / trellis=2 / 8x8dct=1 / cqm=0 / deadzone=21,11 / fast_pskip=1 / chroma_qp_offset=-2 / threads=8 / lookahead_threads=2 / sliced_threads=0 / nr=0 / decimate=1 / interlaced=0 / bluray_compat=0 / stitchable=1 / constrained_intra=0 / bframes=16 / b_pyramid=2 / b_adapt=2 / b_bias=0 / direct=3 / weightb=1 / open_gop=0 / weightp=2 / keyint=240 / keyint_min=121 / scenecut=0 / intra_refresh=0 / rc_lookahead=240 / rc=crf / mbtree=1 / crf=16.0 / qcomp=0.50 / qpmin=6 / qpmax=51 / qpstep=4 / vbv_maxrate=20000 / vbv_bufsize=25000 / crf_max=0.0 / nal_hrd=vbr / filler=0 / ip_ratio=1.40 / aq=1:0.80
Язык : English
Default : Да
Forced : Нет

Аудио #1
Идентификатор : 2
Формат : AC-3
Формат/Информация : Audio Coding 3
Коммерческое название : Dolby Digital
Идентификатор кодека : A_AC3
Продолжительность : 1 ч. 48 м.
Вид битрейта : Постоянный
Битрейт : 384 Кбит/сек
Каналы : 6 каналов
Channel layout : L R C LFE Ls Rs
Частота : 48,0 КГц
Частота кадров : 31,250 кадров/сек (1536 SPF)
Битовая глубина : 16 бит
Метод сжатия : С потерями
Размер потока : 297 Мбайт (6%)
Заголовок : AC3 5.1 @ 384 kbps - DUB, Пифагор
Язык : Russian
ServiceKind/String : Complete Main
Default : Да
Forced : Нет

Аудио #2
Идентификатор : 3
Формат : E-AC-3 JOC
Формат/Информация : Enhanced AC-3 with Joint Object Coding
Коммерческое название : Dolby Digital Plus with Dolby Atmos
Идентификатор кодека : A_EAC3
Продолжительность : 1 ч. 48 м.
Вид битрейта : Постоянный
Битрейт : 448 Кбит/сек
Каналы : 6 каналов
Channel layout : L R C LFE Ls Rs
Частота : 48,0 КГц
Частота кадров : 31,250 кадров/сек (1536 SPF)
Метод сжатия : С потерями
Размер потока : 346 Мбайт (7%)
Заголовок : E-AC3 + Atmos 5.1 @ 448 kbps - Original
Язык : English
ServiceKind/String : Complete Main
Default : Нет
Forced : Нет
Complexity index : 16
Number of dynamic objects : 15
Bed channel count : 1 канал
Bed channel configuration : LFE

Текст #1
Идентификатор : 4
Формат : UTF-8
Идентификатор кодека : S_TEXT/UTF8
Идентификатор кодека/Информация : UTF-8 Plain Text
Продолжительность : 1 ч. 46 м.
Битрейт : 4 бит/сек
ElementCount : 73
Размер потока : 3,53 Кбайт (0%)
Заголовок : Forced
Язык : Russian
Default : Да
Forced : Да

Текст #2
Идентификатор : 5
Формат : UTF-8
Идентификатор кодека : S_TEXT/UTF8
Идентификатор кодека/Информация : UTF-8 Plain Text
Продолжительность : 1 ч. 46 м.
Битрейт : 86 бит/сек
ElementCount : 1357
Размер потока : 67,9 Кбайт (0%)
Заголовок : Full
Язык : Russian
Default : Нет
Forced : Нет

Текст #3
Идентификатор : 6
Формат : UTF-8
Идентификатор кодека : S_TEXT/UTF8
Идентификатор кодека/Информация : UTF-8 Plain Text
Продолжительность : 1 ч. 46 м.
Битрейт : 80 бит/сек
ElementCount : 1871
Размер потока : 63,1 Кбайт (0%)
Заголовок : Full SDH
Язык : English
Default : Нет
Forced : Нет

Текст #4
Идентификатор : 7
Формат : UTF-8
Идентификатор кодека : S_TEXT/UTF8
Идентификатор кодека/Информация : UTF-8 Plain Text
Продолжительность : 1 ч. 46 м.
Битрейт : 1 бит/сек
ElementCount : 48
Размер потока : 1,32 Кбайт (0%)
Заголовок : Castilian [Forced]
Язык : Spanish
Default : Нет
Forced : Нет

Текст #5
Идентификатор : 8
Формат : UTF-8
Идентификатор кодека : S_TEXT/UTF8
Идентификатор кодека/Информация : UTF-8 Plain Text
Продолжительность : 1 ч. 46 м.
Битрейт : 50 бит/сек
ElementCount : 1342
Размер потока : 39,3 Кбайт (0%)
Заголовок : Castilian
Язык : Spanish
Default : Нет
Forced : Нет

Текст #6
Идентификатор : 9
Формат : UTF-8
Идентификатор кодека : S_TEXT/UTF8
Идентификатор кодека/Информация : UTF-8 Plain Text
Продолжительность : 1 ч. 46 м.
Битрейт : 2 бит/сек
ElementCount : 65
Размер потока : 1,99 Кбайт (0%)
Заголовок : Spanish [Forced]
Язык : Spanish
Default : Нет
Forced : Нет

Текст #7
Идентификатор : 10
Формат : UTF-8
Идентификатор кодека : S_TEXT/UTF8
Идентификатор кодека/Информация : UTF-8 Plain Text
Продолжительность : 1 ч. 46 м.
Битрейт : 54 бит/сек
ElementCount : 1353
Размер потока : 42,4 Кбайт (0%)
Заголовок : Spanish
Язык : Spanish
Default : Нет
Forced : Нет

Текст #8
Идентификатор : 11
Формат : UTF-8
Идентификатор кодека : S_TEXT/UTF8
Идентификатор кодека/Информация : UTF-8 Plain Text
Продолжительность : 1 ч. 46 м.
Битрейт : 2 бит/сек
ElementCount : 65
Размер потока : 2,01 Кбайт (0%)
Заголовок : French [Forced]
Язык : French
Default : Нет
Forced : Нет

Текст #9
Идентификатор : 12
Формат : UTF-8
Идентификатор кодека : S_TEXT/UTF8
Идентификатор кодека/Информация : UTF-8 Plain Text
Продолжительность : 1 ч. 46 м.
Битрейт : 55 бит/сек
ElementCount : 1353
Размер потока : 43,1 Кбайт (0%)
Заголовок : French
Язык : French
Default : Нет
Forced : Нет

Текст #10
Идентификатор : 13
Формат : UTF-8
Идентификатор кодека : S_TEXT/UTF8
Идентификатор кодека/Информация : UTF-8 Plain Text
Продолжительность : 1 ч. 46 м.
Битрейт : 1 бит/сек
ElementCount : 56
Размер потока : 1,56 Кбайт (0%)
Заголовок : German [Forced]
Язык : German
Default : Нет
Forced : Нет

Текст #11
Идентификатор : 14
Формат : UTF-8
Идентификатор кодека : S_TEXT/UTF8
Идентификатор кодека/Информация : UTF-8 Plain Text
Продолжительность : 1 ч. 46 м.
Битрейт : 51 бит/сек
ElementCount : 1305
Размер потока : 40,1 Кбайт (0%)
Заголовок : German
Язык : German
Default : Нет
Forced : Нет

Текст #12
Идентификатор : 15
Формат : UTF-8
Идентификатор кодека : S_TEXT/UTF8
Идентификатор кодека/Информация : UTF-8 Plain Text
Продолжительность : 1 ч. 46 м.
Битрейт : 2 бит/сек
ElementCount : 62
Размер потока : 1,88 Кбайт (0%)
Заголовок : Italian [Forced]
Язык : Italian
Default : Нет
Forced : Нет

Текст #13
Идентификатор : 16
Формат : UTF-8
Идентификатор кодека : S_TEXT/UTF8
Идентификатор кодека/Информация : UTF-8 Plain Text
Продолжительность : 1 ч. 46 м.
Битрейт : 52 бит/сек
ElementCount : 1348
Размер потока : 40,8 Кбайт (0%)
Заголовок : Italian
Язык : Italian
Default : Нет
Forced : Нет

Текст #14
Идентификатор : 17
Формат : UTF-8
Идентификатор кодека : S_TEXT/UTF8
Идентификатор кодека/Информация : UTF-8 Plain Text
Продолжительность : 1 ч. 46 м.
Битрейт : 53 бит/сек
ElementCount : 1342
Размер потока : 41,8 Кбайт (0%)
Заголовок : Portuguese
Язык : Portuguese
Default : Нет
Forced : Нет

Текст #15
Идентификатор : 18
Формат : UTF-8
Идентификатор кодека : S_TEXT/UTF8
Идентификатор кодека/Информация : UTF-8 Plain Text
Продолжительность : 1 ч. 46 м.
Битрейт : 2 бит/сек
ElementCount : 59
Размер потока : 1,93 Кбайт (0%)
Заголовок : Brazilian Portuguese [Forced]
Язык : Portuguese
Default : Нет
Forced : Нет

Текст #16
Идентификатор : 19
Формат : UTF-8
Идентификатор кодека : S_TEXT/UTF8
Идентификатор кодека/Информация : UTF-8 Plain Text
Продолжительность : 1 ч. 46 м.
Битрейт : 54 бит/сек
ElementCount : 1336
Размер потока : 43,0 Кбайт (0%)
Заголовок : Brazilian Portuguese
Язык : Portuguese
Default : Нет
Forced : Нет

Текст #17
Идентификатор : 20
Формат : UTF-8
Идентификатор кодека : S_TEXT/UTF8
Идентификатор кодека/Информация : UTF-8 Plain Text
Продолжительность : 1 ч. 46 м.
Битрейт : 0 бит/сек
ElementCount : 23
Размер потока : 545 байт (0%)
Заголовок : Polish [Forced]
Язык : Polish
Default : Нет
Forced : Нет

Текст #18
Идентификатор : 21
Формат : UTF-8
Идентификатор кодека : S_TEXT/UTF8
Идентификатор кодека/Информация : UTF-8 Plain Text
Продолжительность : 1 ч. 46 м.
Битрейт : 50 бит/сек
ElementCount : 1376
Размер потока : 39,9 Кбайт (0%)
Заголовок : Polish
Язык : Polish
Default : Нет
Forced : Нет

Текст #19
Идентификатор : 22
Формат : UTF-8
Идентификатор кодека : S_TEXT/UTF8
Идентификатор кодека/Информация : UTF-8 Plain Text
Продолжительность : 1 ч. 41 м.
Битрейт : 1 бит/сек
ElementCount : 21
Размер потока : 792 байт (0%)
Заголовок : Turkish [Forced]
Язык : Turkish
Default : Нет
Forced : Нет

Текст #20
Идентификатор : 23
Формат : UTF-8
Идентификатор кодека : S_TEXT/UTF8
Идентификатор кодека/Информация : UTF-8 Plain Text
Продолжительность : 1 ч. 46 м.
Битрейт : 55 бит/сек
ElementCount : 1349
Размер потока : 43,5 Кбайт (0%)
Заголовок : Turkish
Язык : Turkish
Default : Нет
Forced : Нет

Текст #21
Идентификатор : 24
Формат : UTF-8
Идентификатор кодека : S_TEXT/UTF8
Идентификатор кодека/Информация : UTF-8 Plain Text
Продолжительность : 1 ч. 46 м.
Битрейт : 49 бит/сек
ElementCount : 1223
Размер потока : 38,7 Кбайт (0%)
Заголовок : Swedish
Язык : Swedish
Default : Нет
Forced : Нет

Текст #22
Идентификатор : 25
Формат : UTF-8
Идентификатор кодека : S_TEXT/UTF8
Идентификатор кодека/Информация : UTF-8 Plain Text
Продолжительность : 1 ч. 46 м.
Битрейт : 56 бит/сек
ElementCount : 1357
Размер потока : 44,5 Кбайт (0%)
Заголовок : Danish
Язык : Danish
Default : Нет
Forced : Нет

Текст #23
Идентификатор : 26
Формат : UTF-8
Идентификатор кодека : S_TEXT/UTF8
Идентификатор кодека/Информация : UTF-8 Plain Text
Продолжительность : 1 ч. 46 м.
Битрейт : 48 бит/сек
ElementCount : 1394
Размер потока : 37,8 Кбайт (0%)
Заголовок : Finnish
Язык : Finnish
Default : Нет
Forced : Нет

Текст #24
Идентификатор : 27
Формат : UTF-8
Идентификатор кодека : S_TEXT/UTF8
Идентификатор кодека/Информация : UTF-8 Plain Text
Продолжительность : 1 ч. 46 м.
Битрейт : 49 бит/сек
ElementCount : 1303
Размер потока : 38,8 Кбайт (0%)
Заголовок : Dutch
Язык : Dutch
Default : Нет
Forced : Нет

Текст #25
Идентификатор : 28
Формат : UTF-8
Идентификатор кодека : S_TEXT/UTF8
Идентификатор кодека/Информация : UTF-8 Plain Text
Продолжительность : 1 ч. 46 м.
Битрейт : 57 бит/сек
ElementCount : 1360
Размер потока : 45,3 Кбайт (0%)
Заголовок : Norwegian
Язык : Norwegian
Default : Нет
Forced : Нет

Текст #26
Идентификатор : 29
Формат : UTF-8
Идентификатор кодека : S_TEXT/UTF8
Идентификатор кодека/Информация : UTF-8 Plain Text
Продолжительность : 1 ч. 46 м.
Битрейт : 89 бит/сек
ElementCount : 1346
Размер потока : 70,2 Кбайт (0%)
Заголовок : Greek
Язык : Greek
Default : Нет
Forced : Нет

Текст #27
Идентификатор : 30
Формат : UTF-8
Идентификатор кодека : S_TEXT/UTF8
Идентификатор кодека/Информация : UTF-8 Plain Text
Продолжительность : 1 ч. 46 м.
Битрейт : 87 бит/сек
ElementCount : 1351
Размер потока : 68,4 Кбайт (0%)
Заголовок : Hebrew
Язык : Hebrew
Default : Нет
Forced : Нет

Текст #28
Идентификатор : 31
Формат : UTF-8
Идентификатор кодека : S_TEXT/UTF8
Идентификатор кодека/Информация : UTF-8 Plain Text
Продолжительность : 1 ч. 46 м.
Битрейт : 97 бит/сек
ElementCount : 1375
Размер потока : 75,9 Кбайт (0%)
Заголовок : Arabic
Язык : Arabic
Default : Нет
Forced : Нет

Текст #29
Идентификатор : 32
Формат : UTF-8
Идентификатор кодека : S_TEXT/UTF8
Идентификатор кодека/Информация : UTF-8 Plain Text
Продолжительность : 1 ч. 46 м.
Битрейт : 67 бит/сек
ElementCount : 1342
Размер потока : 52,6 Кбайт (0%)
Заголовок : Romanian
Язык : Romanian
Default : Нет
Forced : Нет

Текст #30
Идентификатор : 33
Формат : UTF-8
Идентификатор кодека : S_TEXT/UTF8
Идентификатор кодека/Информация : UTF-8 Plain Text
Продолжительность : 1 ч. 46 м.
Битрейт : 2 бит/сек
ElementCount : 52
Размер потока : 2,23 Кбайт (0%)
Заголовок : Hindi [Forced]
Язык : Hindi
Default : Нет
Forced : Нет

Текст #31
Идентификатор : 34
Формат : UTF-8
Идентификатор кодека : S_TEXT/UTF8
Идентификатор кодека/Информация : UTF-8 Plain Text
Продолжительность : 1 ч. 46 м.
Битрейт : 56 бит/сек
ElementCount : 1345
Размер потока : 44,4 Кбайт (0%)
Заголовок : Indonesian
Язык : Indonesian
Default : Нет
Forced : Нет

Текст #32
Идентификатор : 35
Формат : UTF-8
Идентификатор кодека : S_TEXT/UTF8
Идентификатор кодека/Информация : UTF-8 Plain Text
Продолжительность : 1 ч. 46 м.
Битрейт : 135 бит/сек
ElementCount : 1355
Размер потока : 106 Кбайт (0%)
Заголовок : Thai
Язык : Thai
Default : Нет
Forced : Нет

Текст #33
Идентификатор : 36
Формат : UTF-8
Идентификатор кодека : S_TEXT/UTF8
Идентификатор кодека/Информация : UTF-8 Plain Text
Продолжительность : 1 ч. 46 м.
Битрейт : 65 бит/сек
ElementCount : 1395
Размер потока : 51,5 Кбайт (0%)
Заголовок : Korean
Язык : Korean
Default : Нет
Forced : Нет

Текст #34
Идентификатор : 37
Формат : UTF-8
Идентификатор кодека : S_TEXT/UTF8
Идентификатор кодека/Информация : UTF-8 Plain Text
Продолжительность : 1 ч. 46 м.
Битрейт : 60 бит/сек
ElementCount : 1357
Размер потока : 47,5 Кбайт (0%)
Заголовок : Chinese (Simplified)
Язык : Chinese
Default : Нет
Forced : Нет

Текст #35
Идентификатор : 38
Формат : UTF-8
Идентификатор кодека : S_TEXT/UTF8
Идентификатор кодека/Информация : UTF-8 Plain Text
Продолжительность : 1 ч. 46 м.
Битрейт : 63 бит/сек
ElementCount : 1373
Размер потока : 49,4 Кбайт (0%)
Заголовок : Chinese (Traditional)
Язык : Chinese
Default : Нет
Forced : Нет

Текст #36
Идентификатор : 39
Формат : UTF-8
Идентификатор кодека : S_TEXT/UTF8
Идентификатор кодека/Информация : UTF-8 Plain Text
Продолжительность : 1 ч. 46 м.
Битрейт : 3 бит/сек
ElementCount : 79
Размер потока : 2,59 Кбайт (0%)
Заголовок : Japanese [Forced]
Язык : Japanese
Default : Нет
Forced : Нет

Текст #37
Идентификатор : 40
Формат : UTF-8
Идентификатор кодека : S_TEXT/UTF8
Идентификатор кодека/Информация : UTF-8 Plain Text
Продолжительность : 1 ч. 46 м.
Битрейт : 58 бит/сек
ElementCount : 1489
Размер потока : 45,6 Кбайт (0%)
Заголовок : Japanese
Язык : Japanese
Default : Нет
Forced : Нет
pb.wtf



Скачать Грязь через торрент https://b.radikal.ru/b02/1903/cd/029de0a8210e.jpg Скачать фильм Грязь через торрент бесплантно в хорошем качестве Описание: Фильм снят на основе автобиографической книги «Грязь» группы Mötley ... 9.9 10 10
Торрент: Зарегистрирован [2019-03-22 10:12] · скачан: 465 раз
Статус: √ проверено
Размер: 4.63 GB
Как cкачать? Как скачать Грязь через торрент | qTorrent

% Раздел Тема Автор DL S | L
Ultra HD (UHD: 2K, 4K, 8K) — видео сверхвысокой чёткости [ 25.34 GB ] Грязь / The Dirt [2019 биография UHD WEB-DLRip 2160p] [SDR] [Пифагор] sheker187 Скачать
2 | 0

28-11-2019 20:33  

Отключить всю рекламу на сайте

27-03-2019 15:14 Грязь Скачать торрент  

Телевизор Samsung Е -серии данный файл не проигрывает .Просьба указать это в оглавлении .Уверен ,что проблемы с данным файлом будут и у других телевизоров старше 6-7 летpb.wtf



    Дорогой пользователь! Огромная просьба, поблагодарите релизера, оцените раздачу и оставьте свои комментарий, если Вы скачали Грязь через торрент бесплатно! Внесите свою лепту в развитие PiratBit!
    Комментировать посты могут только пользователи прошедшие не сложную регистрацию
    Показать сообщения:    

    Грязь через торрент
    Скачать бесплатно Грязь
    Грязь скачать торрент
    Грязь смотреть онлайн
    Cкачать фильм Грязь бесплатно
    Грязь скачать торрент в хорошем качестве
    Грязь смотреть онлайн бесплатно в хорошем качестве


    Вы не можете начинать темы
    Вы не можете отвечать на сообщения
    Вы не можете редактировать свои сообщения
    Вы не можете удалять свои сообщения
    Вы не можете голосовать в опросах
    Вы не можете прикреплять файлы к сообщениям
    Вы можете скачивать файлы