2 сезон

iTunes

1 сезон

1

iTunes

iTunes

iTunes

1 сезон

RePack

30

ИГРА 18+

pack

ВАЖНО

!!Акция!!

Alien_RageХит недели

RePack

MK11
pack

Забери бонус

RePack

jed

!!Акция!!

Alien_Rage

RePack

fifa19

RePack

Assassins Creed: Odyssey

RePack

NEED FOR SPEED™ PAYBACK

4 сезон

9 сезон

Бесстыжие 9 сезон

Все сериалы

все сериалы на PB.wtf

RePack

FAR CRY 5
  

Родные руки / Серии: 1-2 из 2 (Андрей Хрулёв) [2019, Криминал, мелодрама, SATRip] pb.wtf

Родные руки через торрент pb.wtf

Размер: 1.17 GB | Добавлен: 1 год 7 мес. назад | Торрент скачан:96 раз
Скачать  

22-03-2019 15:25 Родные руки Скачать торрент  

Родные рукиГод выпуска: 2019
Страна: Россия
Жанр: Криминал, мелодрама
Продолжительность: ~ 00:44:00
Субтитры: отсутствуют

Режиссер: Андрей Хрулёв

В ролях:

Анна Большова, Алексей Шутов, Сергей Пиотровский, Марта Дроздова, Валентин Лесик, Серафима Низовская, Андрей Стоянов, Олег Пышненко, Дмитрий Комов, Олег Филипчик

Описание:

Арина и Денис женаты уже двадцать лет. Денис устраивается на хорошую должность в компанию, торгующую фруктами. Во время нападения на фуру, на которой Денис возвращается из командировки, выясняется, что на самом деле грузом были не бананы, а наркотики. Ни минуты не колеблясь, он идёт в полицию. А через некоторое время жене сообщают, что Денис погиб в аварии... Спустя год Арина переезжает жить в загородный дом, где за ней начинает ухаживать новый сосед – Игорь. Арине кажется, что она сходит с ума: у этого мужчины, совершенно не похожего на Дениса, его руки. Качество: SATRip
Формат: AVI

Видео: XviD ~ 1650 Кбит/с, 720x400
Аудио: MP3, 2 ch, 192 Кбит/с
скриншот   скриншот   скриншот  

Общее
Полное имя : D:\Rodnye.ruki.2018.XviD.SATRip.25Kuzmich\Rodnye.ruki.(01.seriya.iz.02).XviD.SATRip.25Kuzmich.avi
Формат : AVI
Формат/Информация : Audio Video Interleave
Размер файла : 600 Мбайт
Продолжительность : 44 м. 41 с.
Общий поток : 1877 Кбит/сек
Программа кодирования : VirtualDubMod 1.5.10.3 | www.virtualdub-fr.org || (build 2550/release)
Библиотека кодирования : VirtualDubMod build 2550/release

Видео
Идентификатор : 0
Формат : MPEG-4 Visual
Профиль формата : Advanced Simple@L5
Параметр BVOP формата : 1
Параметр QPel формата : Нет
Параметр GMC формата : Без точки перехода
Параметр матрицы формата : Default (MPEG)
Идентификатор кодека : XVID
Идентификатор кодека/Подсказка : XviD
Продолжительность : 44 м. 41 с.
Битрейт : 1601 Кбит/сек
Ширина : 720 пикселей
Высота : 400 пикселей
Соотношение сторон : 16:9
Частота кадров : 25,000 кадров/сек
Цветовое пространство : YUV
Субдискретизация насыщенности : 4:2:0
Битовая глубина : 8 бит
Тип развёртки : Прогрессивная
Метод сжатия : С потерями
Бит/(Пиксели*Кадры) : 0.222
Размер потока : 512 Мбайт (85%)
Библиотека кодирования : XviD 73

Аудио
Идентификатор : 1
Формат : MPEG Audio
Версия формата : Version 1
Профиль формата : Layer 3
Режим : Joint stereo
Идентификатор кодека : 55
Идентификатор кодека/Подсказка : MP3
Продолжительность : 44 м. 41 с.
Вид битрейта : Постоянный
Битрейт : 192 Кбит/сек
Каналы : 2 канала
Частота : 48,0 КГц
Метод сжатия : С потерями
Размер потока : 61,4 Мбайт (10%)
Выравнивание : Соединение по промежуткам
Библиотека кодирования : LAME3.99r
Настройки программы : -m j -V 4 -q 2 -lowpass 18.6 -b 192

pb.wtf



Скачать Родные руки через торрент http://lostpix.com/img/2019-03/22/j52klivp8tdcqxshtab8mlntg.jpg Скачать фильм Родные руки через торрент бесплантно в хорошем качестве Описание: Арина и Денис женаты уже двадцать лет. Денис устраивается на хорошую должность в компанию, торгующую фруктами. Во время нападения ... 10 10 5
Торрент: Зарегистрирован [2019-03-22 15:25] · скачан: 96 раз
Статус: √ проверено
Размер: 1.17 GB
Как cкачать? Как скачать Родные руки через торрент | qTorrent

% Раздел Тема Автор DL S | L
Наши сериалы [ 1.15 GB ] Родные руки / Серии: 1-2 из 2 [2019 SATRip-AVC] aleksan55 Скачать
1 | 0

28-11-2019 20:33  

Отключить всю рекламу на сайте

    Дорогой пользователь! Огромная просьба, поблагодарите релизера, оцените раздачу и оставьте свои комментарий, если Вы скачали Родные руки через торрент бесплатно! Внесите свою лепту в развитие PiratBit!
    Комментировать посты могут только пользователи прошедшие не сложную регистрацию
    Показать сообщения:    

    Родные руки через торрент
    Скачать бесплатно Родные руки
    Родные руки скачать торрент
    Родные руки смотреть онлайн
    Cкачать фильм Родные руки бесплатно
    Родные руки скачать торрент в хорошем качестве
    Родные руки смотреть онлайн бесплатно в хорошем качестве


    Вы не можете начинать темы
    Вы не можете отвечать на сообщения
    Вы не можете редактировать свои сообщения
    Вы не можете удалять свои сообщения
    Вы не можете голосовать в опросах
    Вы не можете прикреплять файлы к сообщениям
    Вы можете скачивать файлы