Ссылка на приватное зеркало нашего сайта всего за 1$. Внимание количество ограничено!!!

2 сезон

iTunes

1 сезон

1

2 сезон

2 сезон

iTunes

1 сезон

RePack

30

Новинка

ВАЖНО

ИГРА 18+

pack

RePack

MK11
pack

Забери бонус

RePack

jed

!!Акция!!

Alien_Rage

RePack

fifa19

RePack

Assassins Creed: Odyssey

RePack

NEED FOR SPEED™ PAYBACK

4 сезон

9 сезон

Бесстыжие 9 сезон

Все сериалы

все сериалы на PB.wtf

RePack

FAR CRY 5
  

Начни сначала / Second Act (Питер Сигал) [2018, мелодрама, комедия, BD Remux 1080p] MVO [HDRezka Studio] +DUB [iTunes] pb.wtf

Начни сначала через торрент pb.wtf

Размер: 25.74 GB | Добавлен: 1 год 8 мес. назад | Торрент скачан:66 раз
Скачать  

22-03-2019 16:55 Начни сначала Скачать торрент  

Начни сначала / Second Act Год выпуска: 2018
Страна: США
Жанр: мелодрама, комедия
Продолжительность: 01:44:01
Перевод:

#1: Дублированный | iTunes
#2: Профессиональный многоголосый | HDRezka Studio

Субтитры: Английские

Режиссер: Питер Сигал

rating

В ролях:

Дженнифер Лопез, Ванесса Энн Хадженс, Леа Ремини, Трит Уильямс, Майло Вентимилья, Аннали Эшфорд, Шарлин Йи, Алан Айсинберг, Фредди Строма, Дэйв Фоли

Описание:

Когда Майя уже перестала надеяться, что ее мечты осуществятся, она случайно получает работу в большой корпорации. Теперь у нее есть шанс доказать снобам с Мэдисон Авеню, что врожденный талант и блестящий креатив так же важны, как и диплом престижного университета. И не имеет значения, что у тебя за спиной, - ведь никогда не поздно начать сначала!

Качество: BD Remux 1080p
Формат: MKV

Видео: MPEG-4 AVC, 1920x1080, 31.4 Mbit/s, 23.976 fps
Аудио#1: 48 kHz, AC3, 5.1, 384 Kbps | iTunes | RUS |
Аудио#2: 48 kHz, AC3, 2.0, 192 Kbps | HDRezka Studio | RUS |
Аудио#3: 48 kHz, DTS-HD MA, 5.1, 3453 Kbps | Оригинал | ENG |
скриншот  скриншот  скриншот  скриншот  скриншот  

General
Unique ID : 218890153594728652240045121710682288471 (0xA4ACB5CB56D9F5900150A0CD46203157)
Complete name : D:Video111Second.Act.2018.BDREMUX.1080p.seleZen.mkv
Format : Matroska
Format version : Version 4
File size : 25.7 GiB
Duration : 1 h 44 min
Overall bit rate mode : Variable
Overall bit rate : 35.4 Mb/s
Movie name : Second Act 2018 from селезень
Encoded date : UTC 2019-03-22 16:28:42
Writing application : mkvmerge v32.0.0 ('Astral Progressions') 64-bit
Writing library : libebml v1.3.7 + libmatroska v1.5.0

Video
ID : 1
Format : AVC
Format/Info : Advanced Video Codec
Format profile : High@L4.1
Format settings : CABAC / 4 Ref Frames
Format settings, CABAC : Yes
Format settings, ReFrames : 4 frames
Format settings, GOP : M=3, N=12
Codec ID : V_MPEG4/ISO/AVC
Duration : 1 h 44 min
Bit rate mode : Variable
Bit rate : 31.4 Mb/s
Maximum bit rate : 35.0 Mb/s
Width : 1 920 pixels
Height : 1 080 pixels
Display aspect ratio : 16:9
Frame rate mode : Constant
Frame rate : 23.976 (24000/1001) FPS
Color space : YUV
Chroma subsampling : 4:2:0
Bit depth : 8 bits
Scan type : Progressive
Bits/(Pixel*Frame) : 0.631
Stream size : 22.8 GiB (89%)
Language : English
Default : Yes
Forced : No

Audio #1
ID : 2
Format : AC-3
Format/Info : Audio Coding 3
Commercial name : Dolby Digital
Codec ID : A_AC3
Duration : 1 h 44 min
Bit rate mode : Constant
Bit rate : 384 kb/s
Channel(s) : 6 channels
Channel layout : L R C LFE Ls Rs
Sampling rate : 48.0 kHz
Frame rate : 31.250 FPS (1536 SPF)
Bit depth : 16 bits
Compression mode : Lossy
Stream size : 286 MiB (1%)
Title : iTunes
Language : Russian
Service kind : Complete Main
Default : Yes
Forced : Yes

Audio #2
ID : 3
Format : AC-3
Format/Info : Audio Coding 3
Commercial name : Dolby Digital
Codec ID : A_AC3
Duration : 1 h 44 min
Bit rate mode : Constant
Bit rate : 192 kb/s
Channel(s) : 2 channels
Channel layout : L R
Sampling rate : 48.0 kHz
Frame rate : 31.250 FPS (1536 SPF)
Bit depth : 16 bits
Compression mode : Lossy
Stream size : 143 MiB (1%)
Title : MVO [HDRezka Studio]
Language : Russian
Service kind : Complete Main
Default : No
Forced : No

Audio #3
ID : 4
Format : DTS XLL
Format/Info : Digital Theater Systems
Commercial name : DTS-HD Master Audio
Codec ID : A_DTS
Duration : 1 h 44 min
Bit rate mode : Variable
Bit rate : 3 453 kb/s
Channel(s) : 6 channels
Channel layout : C L R Ls Rs LFE
Sampling rate : 48.0 kHz
Frame rate : 93.750 FPS (512 SPF)
Bit depth : 24 bits
Compression mode : Lossless
Stream size : 2.51 GiB (10%)
Title : Original
Language : English
Default : No
Forced : No

Text
ID : 5
Format : UTF-8
Codec ID : S_TEXT/UTF8
Codec ID/Info : UTF-8 Plain Text
Duration : 1 h 36 min
Bit rate : 82 b/s
Count of elements : 1731
Stream size : 57.9 KiB (0%)
Language : English
Default : No
Forced : No

Menu
00:00:00.000 : ru:Глава 01
00:07:09.721 : ru:Глава 02
00:13:40.403 : ru:Глава 03
00:17:51.529 : ru:Глава 04
00:22:17.378 : ru:Глава 05
00:27:38.615 : ru:Глава 06
00:33:52.197 : ru:Глава 07
00:38:46.074 : ru:Глава 08
00:45:02.325 : ru:Глава 09
00:49:28.549 : ru:Глава 10
00:55:15.229 : ru:Глава 11
00:59:48.919 : ru:Глава 12
01:04:46.299 : ru:Глава 13
01:10:35.064 : ru:Глава 14
01:15:03.874 : ru:Глава 15
01:20:56.894 : ru:Глава 16
01:25:36.923 : ru:Глава 17
01:29:41.459 : ru:Глава 18
01:33:19.427 : ru:Глава 19
01:37:56.704 : ru:Глава 20

pb.wtf



Скачать Начни сначала через торрент http://img14.lostpic.net/2019/03/22/28e823b57c6e15bfd595b2749e0d6ccf.jpg Скачать фильм Начни сначала через торрент бесплантно в хорошем качестве Описание: Когда Майя уже перестала надеяться, что ее мечты осуществятся, она случайно получает работу в большой корпорации. Теперь у нее ... 7.8 10 4
Торрент: Зарегистрирован [2019-03-22 16:55] · скачан: 66 раз
Статус: √ проверено
Размер: 25.74 GB
Как cкачать? Как скачать Начни сначала через торрент | qTorrent

% Раздел Тема Автор DL S | L
Фильмы 2018 [DVDrip, WEB-DLRip, HDrip] (DUB, MVO) [ 710 MB ] Начни сначала / Second Act [2018 HDRip ] coc900 Скачать
1 | 0
Фильмы 2018 [DVDrip, WEB-DLRip, HDrip] (DUB, MVO) [ 1.42 GB ] Начни сначала / Second Act [2018 BDRip] - Twi7ter Скачать
3 | 0
Фильмы 2018 [DVDrip, WEB-DLRip, HDrip] (DUB, MVO) [ 1.46 GB ] Начни сначала / Second Act [2018 HDRip] bober100 Скачать
1 | 0
Фильмы [HD 720p, 1080p] (Хороший звук DUB, MVO) [ 12.96 GB ] Начни сначала / Second Act [2018 BDRip 1080p] killermax2013 Скачать
1 | 0
T Фильмы 2018 [DVDrip, WEB-DLRip, HDrip] (DUB, MVO) [ 1.37 GB ] Начни сначала / Second Act [2018 HDRip] MVO [HDRezka Studio] - ExKinoRay Enigma2010 Скачать
1 | 0
T Фильмы 2018 [DVDrip, WEB-DLRip, HDrip] (DUB, MVO) [ 1.37 GB ] Начни сначала / Second Act [2018 WEB-DLRip] MVO [HDRezka Studio] - ExKinoRay Enigma2010 Скачать
2 | 0

28-11-2019 20:33  

Отключить всю рекламу на сайте

    Дорогой пользователь! Огромная просьба, поблагодарите релизера, оцените раздачу и оставьте свои комментарий, если Вы скачали Начни сначала через торрент бесплатно! Внесите свою лепту в развитие PiratBit!
    Комментировать посты могут только пользователи прошедшие не сложную регистрацию
    Показать сообщения:    

    Начни сначала через торрент
    Скачать бесплатно Начни сначала
    Начни сначала скачать торрент
    Начни сначала смотреть онлайн
    Cкачать фильм Начни сначала бесплатно
    Начни сначала скачать торрент в хорошем качестве
    Начни сначала смотреть онлайн бесплатно в хорошем качестве


    Вы не можете начинать темы
    Вы не можете отвечать на сообщения
    Вы не можете редактировать свои сообщения
    Вы не можете удалять свои сообщения
    Вы не можете голосовать в опросах
    Вы не можете прикреплять файлы к сообщениям
    Вы можете скачивать файлы